<?xml version="1.0" standalone="no"?>
<!DOCTYPE svg PUBLIC "-//W3C//DTD SVG 1.1//EN" "http://www.w3.org/Graphics/SVG/1.1/DTD/svg11.dtd" >
<!--
2013-9-30: Created.
-->
<svg>
<metadata>
Created by iconfont
</metadata>
<defs>

<font id="iconfont" horiz-adv-x="1024" >
  <font-face
    font-family="iconfont"
    font-weight="500"
    font-stretch="normal"
    units-per-em="1024"
    ascent="896"
    descent="-128"
  />
    <missing-glyph />
    
    <glyph glyph-name="gitee2" unicode="&#59094;" d="M512-128C229.233778-128 0 101.233778 0 384S229.233778 896 512 896s512-229.233778 512-512-229.233778-512-512-512z m259.157333 568.888889l-290.759111-0.014222c-13.966222 0-25.287111-11.320889-25.287111-25.272889l-0.028444-63.217778c0-13.966222 11.306667-25.287111 25.272889-25.287111h177.024c13.966222 0 25.287111-11.306667 25.287111-25.272889v-12.643556A75.847111 75.847111 0 0 0 606.819556 213.333333h-240.213334a25.287111 25.287111 0 0 0-25.287111 25.272889V478.805333a75.847111 75.847111 0 0 0 75.847111 75.847111L771.086222 554.666667c13.966222 0 25.272889 11.306667 25.287111 25.272889L796.444444 643.128889c0 13.966222-11.306667 25.287111-25.272888 25.301333l-353.991112-0.014222C312.462222 668.430222 227.555556 583.523556 227.555556 478.805333v-353.962666c0-13.966222 11.320889-25.287111 25.287111-25.287111H625.777778c94.264889 0 170.666667 76.401778 170.666666 170.666666V415.601778c0 13.952-11.320889 25.272889-25.287111 25.272889z"  horiz-adv-x="1024" />

    
    <glyph glyph-name="github" unicode="&#59145;" d="M512 883.36c-282.752 0-512-229.216-512-512 0-226.208 146.72-418.144 350.144-485.824 25.6-4.736 35.008 11.104 35.008 24.64 0 12.192-0.48 52.544-0.704 95.328-142.464-30.976-172.512 60.416-172.512 60.416-23.296 59.168-56.832 74.912-56.832 74.912-46.464 31.776 3.52 31.136 3.52 31.136 51.392-3.616 78.464-52.768 78.464-52.768 45.664-78.272 119.776-55.648 148.992-42.56 4.576 33.088 17.856 55.68 32.512 68.48-113.728 12.928-233.28 56.864-233.28 253.024 0 55.904 20 101.568 52.768 137.44-5.312 12.896-22.848 64.96 4.96 135.488 0 0 43.008 13.76 140.832-52.48 40.832 11.36 84.64 17.024 128.16 17.248 43.488-0.192 87.328-5.888 128.256-17.248 97.728 66.24 140.64 52.48 140.64 52.48 27.872-70.528 10.336-122.592 5.024-135.488 32.832-35.84 52.704-81.536 52.704-137.44 0-196.64-119.776-239.936-233.792-252.64 18.368-15.904 34.72-47.04 34.72-94.816 0-68.512-0.608-123.648-0.608-140.512 0-13.632 9.216-29.6 35.168-24.576 203.328 67.776 349.856 259.616 349.856 485.76 0 282.784-229.248 512-512 512z"  horiz-adv-x="1024" />

    
    <glyph glyph-name="icon_wechat" unicode="&#60382;" d="M480.273415 542.676929c-26.28362 0-47.589878 21.306258-47.589878 47.589878s21.306258 47.589878 47.589878 47.589878 47.589878-21.306258 47.589878-47.589878-21.307282-47.589878-47.589878-47.589878z m-222.086098 0c-26.282596 0-47.589878 21.306258-47.589878 47.589878s21.306258 47.589878 47.589878 47.589878 47.589878-21.306258 47.589878-47.589878-21.306258-47.589878-47.589878-47.589878z m464.466404 47.564295a399.151839 399.151839 0 0 1-4.430916 0.025583c-20.759813 0-41.097-1.647523-60.860113-4.807492-37.747719 103.247502-151.84329 179.303712-288.131303 179.303712-167.45178 0-301.401538-114.813932-301.401538-253.81166 0-71.990614 35.929304-139.478681 98.44001-187.514721a31.729655 31.729655 0 0 0 11.567453-32.355919l-19.032472-81.68644 105.269556 54.822606a31.724539 31.724539 0 0 0 22.09932 2.701528c26.76662-6.462179 54.636365-9.777691 83.058694-9.77769h0.428766a290.275129 290.275129 0 0 1 10.526751-63.312978c-3.638877-0.093121-7.291057-0.140193-10.955517-0.140193-29.30135 0-58.165748 3.003404-86.151125 8.886391l-156.183132-81.33647c-24.046672-12.523221-51.705616 8.933463-45.553499 35.338856l30.207999 129.649826C43.754526 344.967008 4.375657 425.038672 4.375657 510.950344c0 176.399569 164.342975 317.26483 364.854709 317.26483 169.34285 0 312.887127-100.474342 353.423355-237.97395z m90.747817-301.376978c-26.28362 0-47.589878 21.306258-47.589878 47.589878s21.306258 47.589878 47.589878 47.589878 47.589878-21.306258 47.589878-47.589878c0-26.282596-21.306258-47.589878-47.589878-47.589878z m-190.358489 0c-26.28362 0-47.589878 21.306258-47.589878 47.589878s21.306258 47.589878 47.589878 47.589878 47.589878-21.306258 47.589878-47.589878c0-26.282596-21.307282-47.589878-47.589878-47.589878z m237.063207-207.569476a31.726585 31.726585 0 0 0 11.728112 34.288944c53.319369 39.149649 84.33578 96.250134 84.335781 157.417239 0 112.948445-105.7106 206.222805-237.949391 206.222805s-237.94939-93.27436-237.94939-206.222805 105.7106-206.222805 237.94939-206.222805c19.938098 0 39.532365 2.125407 58.480926 6.282077a31.730679 31.730679 0 0 0 20.985964-2.612501l76.435856-38.217416-14.017248 49.064462z m94.844112-100.979856c7.583722-26.543539-20.00359-49.438992-44.693922-37.092803l-131.196041 65.598021c-19.874653-3.641947-40.229237-5.494131-60.838623-5.494131-165.637458 0-301.401538 119.792317-301.401538 269.675976S552.585347 542.676929 718.221782 542.676929s301.401538-119.792317 301.401537-269.674952c0-74.875315-34.238802-144.482649-92.689028-194.632839l28.016077-98.054224z"  horiz-adv-x="1024" />

    
    <glyph glyph-name="icon_exchange" unicode="&#60327;" d="M703.990662 639.988232H289.031812V761.11187L112.747877 605.707474l176.282912-151.608953V575.990662h446.957635v-0.912789c36.963866-2.12029 72.765257-7.91118 106.506732-17.136285-28.199249 47.562249-80.918961 82.046644-138.504494 82.046644z m-31.998784-129.024585v1.030469H353.028359V384.37453c0-17.672498-14.326287-31.998785-31.998785-31.998785a31.999808 31.999808 0 0 0-20.865213 7.738242L43.156916 581.149149c-13.398148 11.523451-14.918781 31.726585-3.39533 45.124733a31.945573 31.945573 0 0 0 3.100617 3.13848L299.869648 855.981564c13.256932 11.686157 33.476439 10.413164 45.163619-2.842744a31.998785 31.998785 0 0 0 7.995092-21.159926v-127.993092h350.962303c123.70544 0 223.989447-107.446128 223.989447-221.528396a330.016249 330.016249 0 0 0-1.432628-30.886451c-57.589626 38.119179-136.065955 60.424184-222.556819 60.424184a495.247454 495.247454 0 0 1-31.998784-1.031492zM320.009338 128.386298h414.95885v-121.124661l176.282912 155.404395-176.282912 151.609977v-121.892141H288.010553v0.912789c-36.963866 2.12029-72.765257 7.91118-106.506733 17.136285 28.200272-47.562249 80.919984-82.046644 138.505518-82.046644z m31.997761 129.024585v-1.030469h318.963519V384c0 17.672498 14.326287 31.998785 31.998785 31.998785a31.998785 31.998785 0 0 0 20.865213-7.738242L980.843084 187.225381c13.398148-11.523451 14.918781-31.726585 3.39533-45.124733a31.94762 31.94762 0 0 0-3.100617-3.13848L724.129328-87.607034c-13.255908-11.686157-33.476439-10.414187-45.163619 2.842744a31.998785 31.998785 0 0 0-7.995091 21.159926V64.389752H320.009338c-123.70544 0-223.989447 107.446128-223.989447 221.528395 0 10.513448 0.48607 20.817118 1.432628 30.886451 57.589626-38.119179 136.065955-60.423161 222.556819-60.423161a493.786173 493.786173 0 0 1 31.997761 1.029446z"  horiz-adv-x="1024" />

    
    <glyph glyph-name="icon_ding" unicode="&#60328;" d="M755.681952 799.980109l-3.796466-20.143782c-4.790096-25.41074-27.03268-43.853787-52.889581-43.853787h-94.111425l-5.205558-58.305941-13.068644-146.363485-4.653996-52.116985 50.154283-14.916734c106.232486-31.594579 148.201343-104.747669 162.039513-176.276773H229.849922c13.83817 71.529103 55.80805 144.682193 162.040536 176.276773l50.154284 14.916734-4.653997 52.116985-13.068643 146.363485-5.205559 58.305941H325.006142c-25.856901 0-48.100508 18.442024-52.889581 43.852764L268.317025 799.980109h487.364927m38.59297 63.996547H229.724055c-1.988284 0-3.972475-0.185218-5.925966-0.553609-17.366529-3.273557-28.791743-20.004613-25.518187-37.372165l10.945283-58.069557c10.494005-55.672974 59.125609-95.995331 115.779934-95.995332h35.573193l13.068643-146.363485c-147.627269-43.904952-213.630519-161.757081-213.630518-301.615409h304.672024l13.141298-287.907199c0.799202-17.494443 15.789615-32.077579 33.460066-32.077579h2.331092c17.930371 0 32.612769 14.361079 33.373085 32.077579l12.360516 287.907199h304.628022c0 139.858328-66.002226 257.710456-213.630519 301.615409l13.068644 146.363485h35.574216c56.653301 0 105.284905 40.322357 115.779934 95.995332l10.944259 58.069557c0.36839 1.954515 0.553609 3.939729 0.553609 5.926989 0.001023 17.672498-14.32424 31.998785-31.997761 31.998785z"  horiz-adv-x="1024" />

    
    <glyph glyph-name="icon_down" unicode="&#60329;" d="M512 495.029746L149.978826 133.008572c-12.496615-12.496615-32.756031-12.496615-45.252646 0l-45.252647 45.252647c-12.496615 12.496615-12.496615 32.756031 0 45.252647l429.900144 429.900143c12.496615 12.495592 32.756031 12.495592 45.252646 0l429.900144-429.900143c12.495592-12.496615 12.495592-32.756031 0-45.252647l-45.252647-45.252647c-12.495592-12.496615-32.756031-12.496615-45.252646 0L512 495.029746z"  horiz-adv-x="1024" />

    
    <glyph glyph-name="icon_glass" unicode="&#60330;" d="M782.188652 83.160257c96.370885 0 174.494173 78.124312 174.494173 174.494173 0 96.370885-78.123288 174.494173-174.494173 174.494173S607.694479 354.025315 607.694479 257.65443c0-96.370885 78.123288-174.494173 174.494173-174.494173z m-539.346835 0c96.370885 0 174.494173 78.124312 174.494173 174.494173 0 96.370885-78.123288 174.494173-174.494173 174.494173-96.370885 0-174.494173-78.123288-174.494173-174.494173 0-96.370885 78.123288-174.494173 174.494173-174.494173z m649.828089 385.29218L810.298873 646.924201c-14.685467 31.818683-52.384068 45.706995-84.20275 31.021528-0.907673-0.424672-0.907673-0.424672-1.807159-0.868787l-38.944987-19.48989c-15.668865-7.841595-34.728966-1.496074-42.570561 14.173814-7.841595 15.668865-1.496074 34.728966 14.173814 42.570561l38.944987 19.48989c1.797949 0.88823 1.797949 0.88823 3.613294 1.737574 63.637366 29.370935 139.034567 1.592264 168.405501-62.044078l149.191904-323.249125c5.28333-11.447726 3.169179-24.418133-4.359284-33.528628 4.826935-18.891256 7.392364-38.687114 7.392364-59.08263 0-131.415029-106.532315-237.947344-237.947344-237.947343S544.241308 126.240425 544.241308 257.65443c0 5.330402 0.174985 10.619872 0.51984 15.863293h-0.51984c0 17.522072-14.204513 31.726585-31.726585 31.726585s-31.726585-14.204513-31.726585-31.726585h-0.51984a241.694691 241.694691 0 0 0 0.51984-15.863293c0-131.415029-106.532315-237.947344-237.947344-237.947343S4.894474 126.240425 4.894474 257.65443c0 20.357654 2.556219 40.117696 7.365758 58.978253-7.599072 9.115612-9.750061 22.141276-4.446266 33.633005l149.191904 323.249125c29.370935 63.637366 104.768135 91.415013 168.405501 62.044078 1.815345-0.849344 1.815345-0.849344 3.613294-1.737574l38.944988-19.48989c15.668865-7.841595 22.014386-26.900673 14.173814-42.570561-7.841595-15.668865-26.900673-22.014386-42.570561-14.173814l-38.944988 19.48989c-0.898463 0.444115-0.898463 0.444115-1.807158 0.868787-31.818683 14.685467-69.517283 0.796132-84.202751-31.021528l-82.407871-178.550558c33.050744 17.388019 70.691015 27.228131 110.630656 27.228131 97.355305 0 181.054589-58.467623 217.900775-142.204769 14.901385 9.67843 32.680307 15.299451 51.773154 15.299451 19.091824 0 36.871769-5.621021 51.773154-15.299451 36.846186 83.737146 120.54547 142.204769 217.900775 142.204769 39.879266 0 77.466326-9.810437 110.481254-27.149337z"  horiz-adv-x="1024" />

    
    <glyph glyph-name="icon_GPS" unicode="&#60331;" d="M512-47.979502c223.989447 224.729298 335.984171 399.577534 335.984171 524.546757 0 187.452299-150.424988 339.412246-335.984171 339.412247S176.015829 664.019555 176.015829 476.567255c0-124.9682 111.994724-299.81746 335.984171-524.546757z m45.327348-45.177945c-25.009603-25.092491-65.645093-25.092491-90.654696 0-235.249909 236.027621-354.653369 422.443311-354.653369 569.724702C112.019283 699.219241 290.950512 879.976048 512 879.976048s399.980717-180.756807 399.980717-403.408793c0-147.281391-119.40346-333.697081-354.653369-569.724702z m-45.327348 445.158662c70.688969 0 127.994116 57.305147 127.994116 127.994116s-57.305147 127.994116-127.994116 127.994116-127.994116-57.305147-127.994116-127.994116 57.305147-127.994116 127.994116-127.994116z m0-63.996546c-106.033965 0-191.990662 85.956697-191.990662 191.990662s85.956697 191.990662 191.990662 191.990662 191.990662-85.956697 191.990662-191.990662-85.957721-191.990662-191.990662-191.990662z"  horiz-adv-x="1024" />

    
    <glyph glyph-name="icon_hardware_fill" unicode="&#60332;" d="M128.018675 256.005884h767.96265v-63.996546H128.018675v63.996546z m703.966103 351.983563c-17.672498 0-31.998785 14.326287-31.998785 31.998785s14.326287 31.998785 31.998785 31.998785h31.998785c53.016471 0 95.995331-42.97886 95.995331-95.995331v-543.974226c0-53.016471-42.97886-95.995331-95.995331-95.995331H160.016437c-53.016471 0-95.995331 42.97886-95.995331 95.995331V575.990662c0 53.016471 42.97886 95.995331 95.995331 95.995331h31.998785c17.672498 0 31.998785-14.326287 31.998785-31.998784s-14.326287-31.998785-31.998785-31.998785h-31.998785c-17.672498 0-31.998785-14.326287-31.998785-31.998785v-543.974225c0-17.672498 14.326287-31.998785 31.998785-31.998785h703.966103c17.672498 0 31.998785 14.326287 31.998785 31.998785V575.990662c0 17.672498-14.326287 31.998785-31.998785 31.998785h-31.997762zM512 415.998785c-26.508747 0-47.998177 21.48943-47.998177 47.998177s21.48943 47.998177 47.998177 47.998177 47.998177-21.48943 47.998177-47.998177c-0.001023-26.508747-21.48943-47.998177-47.998177-47.998177z m135.75794 199.754486c12.495592-12.495592 12.495592-32.756031 0-45.252646-12.495592-12.496615-32.756031-12.496615-45.252647 0-23.162536 23.162536-55.161321 37.488823-90.505293 37.488822s-67.342758-14.326287-90.505293-37.488822c-12.495592-12.496615-32.756031-12.496615-45.252647 0-12.495592 12.495592-12.495592 32.756031 0 45.252646 34.743292 34.743292 82.741469 56.232722 135.75794 56.232722s101.014648-21.488407 135.75794-56.232722z m113.131617 113.131617c12.496615-12.495592 12.496615-32.756031 0-45.252647-12.495592-12.495592-32.756031-12.495592-45.252647 0-52.114938 52.114938-124.111692 84.349083-203.63691 84.349084s-151.521972-32.234145-203.63691-84.349084c-12.496615-12.495592-32.756031-12.495592-45.252647 0-12.496615 12.496615-12.496615 32.756031 0 45.252647C326.806137 792.581606 414.802284 831.978894 512 831.978894s185.192839-39.397289 248.889557-103.094006z"  horiz-adv-x="1024" />

    
    <glyph glyph-name="icon_im_more" unicode="&#60333;" d="M512-91.897757c262.831081 0 475.897757 213.066677 475.897757 475.897757S774.831081 859.897757 512 859.897757 36.102243 646.831081 36.102243 384 249.168919-91.897757 512-91.897757z m0-31.726586c-280.353153 0-507.624343 227.27119-507.624343 507.624343S231.646847 891.624343 512 891.624343s507.624343-227.27119 507.624343-507.624343-227.27119-507.624343-507.624343-507.624343z m-31.726585 539.350928V638.021437c0 17.406438 14.081717 31.516808 31.726585 31.516808 17.522072 0 31.726585-14.116509 31.726585-31.516808v-222.294852h222.294852c17.406438 0 31.516808-14.081717 31.516808-31.726585 0-17.522072-14.116509-31.726585-31.516808-31.726585H543.726585v-222.294852c0-17.406438-14.081717-31.516808-31.726585-31.516808-17.522072 0-31.726585 14.116509-31.726585 31.516808V352.273415H257.978563c-17.406438 0-31.516808 14.081717-31.516808 31.726585 0 17.522072 14.116509 31.726585 31.516808 31.726585h222.294852z"  horiz-adv-x="1024" />

    
    <glyph glyph-name="icon_group" unicode="&#60334;" d="M927.602509 143.783986l-0.23229 0.227174h29.299303c-6.963599 16.205077-17.3389 28.650527-32.123628 38.505989-11.113105 7.407714-25.723871 13.758352-46.514383 20.424169-5.110391 1.638313-10.54824 3.289929-17.350157 5.284353-3.324722 0.975211-15.70161 4.557806-18.429745 5.355985-88.184435 25.798573-130.320091 54.177923-130.320091 130.420375 0 23.708981 6.788613 44.428885 18.857487 65.177441 3.789303 6.513344 7.748475 12.511965 13.272281 20.383236-2.675946-3.813862 9.016351 12.731976 11.486613 16.3729 15.338337 22.601764 21.530362 39.328727 21.530362 66.057485V583.99087c0 42.020022-14.459317 72.682369-42.056862 89.419566-29.714765 11.600199-47.465035 27.124777-53.251831 46.573735-1.813299 6.094812-2.127454 19.222807 6.708796 25.606191 4.488221 3.242857 10.018168 4.727675 16.588816 4.455475l0.721431-0.555655-0.228197 0.403182c87.37807-12.452613 135.514393-79.288834 135.514393-165.902494v-71.996754c0-95.995331-65.146743-119.993908-65.146742-167.992085 0-71.996754 112.100124-60.234873 184.111204-108.23305 25.090445-16.72287 43.566238-38.886659 55.428404-66.491367 13.953803-32.473599-1.058099-70.109778-33.531698-84.064604a63.968917 63.968917 0 0 0-9.199522-3.148714l-0.032746-0.109493-0.391926 0.001023-0.179079-0.045026-0.022513 0.046049c-31.827893 0.151449-51.17759 12.536524-58.051137 37.155225-3.069919 10.667967 1.203408 18.968004 12.821003 24.90011l0.722454-0.228198zM375.726314 367.090888c14.781658-24.329105 22.99062-48.275493 22.99062-75.65712 0-87.273692-49.405223-119.287827-159.104671-150.295028-3.53143-0.997724-19.150152-5.370311-23.319102-6.550183-8.773827-2.484587-15.809057-4.539386-22.470781-6.585999-30.438243-9.346879-51.907207-18.339694-68.656682-29.290093-29.495778-19.284205-48.27754-45.904493-57.852616-82.694397h798.615786c-9.473769 36.729529-28.263717 63.308885-57.944713 82.604346-16.529465 10.745738-37.448914 19.615757-66.565045 28.721135-6.931876 2.167363-14.261818 4.338818-23.385617 6.948249-4.428869 1.266853-20.75265 5.875824-24.308638 6.890944-108.392686 30.92943-157.548222 63.22088-157.548223 150.252049 0 27.154453 8.003278 50.982138 22.450315 75.206866 4.670369 7.831362 9.629311 15.159258 16.617469 24.87555-3.558036-4.947685 11.968589 16.485463 15.33322 21.321608 22.096251 31.757285 31.472805 56.463989 31.472806 94.585216v92.567255c0 94.390787-55.488779 151.992693-154.733107 151.992693-100.638071 0-155.976424-57.491389-154.74948-151.154605l0.005117-0.838088v-42.306548c0-28.01403 0-28.01403-0.005117-51.098795-0.497327-37.983079 8.776897-62.33879 31.306007-94.169753 3.366677-4.756327 18.307971-25.061792 15.144931-20.73116 7.015787-9.603729 12.005428-16.8559 16.707521-24.594142zM248.578472 599.990263c-1.616824 123.423007 76.646658 215.989239 218.740909 215.989239 140.467195 0 218.729653-92.313475 218.729654-215.989239v-92.567256c0-123.423007-85.874833-154.277736-85.874833-215.989239 0-92.566232 147.767462-77.444836 242.692414-139.15634 43.26027-28.123524 71.603805-68.215638 85.031629-120.276341 8.827039-34.224476-11.760858-69.124334-45.985334-77.951373a63.993476 63.993476 0 0 0-15.983019-2.028193l-798.61681 0.001024c-35.343973 0-63.996546 28.652574-63.996547 63.996546 0 5.437849 0.692778 10.854209 2.062986 16.117073 13.531178 51.995211 41.785685 92.042299 84.765569 120.141264 94.390787 61.711504 244.575298 46.590108 244.575298 139.15634 0 61.711504-87.757716 92.567255-86.141916 215.989239v92.567256z"  horiz-adv-x="1024" />

    
    <glyph glyph-name="icon_horn" unicode="&#60335;" d="M702.383048 225.615737c40.534182 40.534182 65.605184 96.531544 65.605184 158.384263s-25.071002 117.850082-65.605184 158.384263c-12.496615 12.495592-12.496615 32.756031 0 45.252647 12.495592 12.496615 32.756031 12.496615 45.252647 0 52.114938-52.114938 84.349083-124.111692 84.349083-203.63691s-32.234145-151.521972-84.349083-203.63691c-12.495592-12.496615-32.756031-12.496615-45.252647 0-12.496615 12.496615-12.496615 32.757055 0 45.252647z m113.130594-113.131617C885.000226 181.970704 927.979086 277.966035 927.979086 384s-42.97886 202.029296-112.465444 271.51588c-12.495592 12.496615-12.495592 32.756031 0 45.252647 12.496615 12.496615 32.756031 12.496615 45.252646 0C941.834652 619.700163 991.976656 507.70544 991.976656 384s-50.142004-235.700163-131.209344-316.768527c-12.496615-12.496615-32.757055-12.496615-45.25367 0-12.495592 12.496615-12.495592 32.757055 0 45.252647zM312.24449 543.992901H112.019283c-8.836249 0-15.999392-7.163143-15.999392-15.999393v-287.985993c0-8.836249 7.163143-15.999392 15.999392-15.999393H312.245514c25.459858 0 49.875944-10.113335 67.87897-28.116361l163.874301-163.874301V735.983563L380.12346 572.109262a95.992261 95.992261 0 0 0-67.87897-28.116361z m41.371247 92.112907L498.746138 781.23621c40.316218 40.316218 109.249193 11.762905 109.249193-45.252647v-703.966103c0-57.015551-68.933999-85.568864-109.249193-45.252647L353.615737 131.894192a95.994308 95.994308 0 0 1-67.878971 28.116361H96.019891c-35.344996 0-63.996546 28.652574-63.996547 63.996546V543.992901c0 35.344996 28.652574 63.996546 63.996547 63.996546h189.716875a95.996354 95.996354 0 0 1 67.878971 28.116361z"  horiz-adv-x="1024" />

    
    <glyph glyph-name="icon_im_face" unicode="&#60336;" d="M702.358489 447.453171c-35.044144 0-63.453171 35.510772-63.453171 79.316463s28.409027 79.316463 63.453171 79.316464 63.453171-35.510772 63.453171-79.316464-28.409027-79.316463-63.453171-79.316463z m-380.718001 0c-35.044144 0-63.453171 35.510772-63.453171 79.316463s28.409027 79.316463 63.453171 79.316464 63.453171-35.510772 63.45317-79.316464-28.409027-79.316463-63.45317-79.316463z m190.359512-539.350928c262.831081 0 475.897757 213.066677 475.897757 475.897757S774.831081 859.897757 512 859.897757 36.102243 646.831081 36.102243 384 249.168919-91.897757 512-91.897757z m0-31.726586c-280.353153 0-507.624343 227.27119-507.624343 507.624343S231.646847 891.624343 512 891.624343s507.624343-227.27119 507.624343-507.624343-227.27119-507.624343-507.624343-507.624343zM226.460732 320.546829H797.538245c0-157.698648-127.84062-285.538245-285.538245-285.538245S226.460732 162.848181 226.460732 320.546829z"  horiz-adv-x="1024" />

    
    <glyph glyph-name="icon_launch_page" unicode="&#60337;" d="M336.00873 639.988232c-26.508747 0-47.998177 21.48943-47.998177 47.998177s21.48943 47.998177 47.998177 47.998177 47.998177-21.48943 47.998177-47.998177-21.490453-47.998177-47.998177-47.998177z m-15.999392-671.968341h383.981324c17.672498 0 31.998785-14.326287 31.998785-31.998785s-14.326287-31.998785-31.998785-31.998785H320.009338c-17.672498 0-31.998785 14.326287-31.998785 31.998785s14.326287 31.998785 31.998785 31.998785z m511.97544 404.280649l-158.714791 188.417277-231.342926-231.342925c-12.405541-12.405541-32.486902-12.508895-45.019332-0.230244L288.832268 435.02921l-96.817046-96.328929v-242.686274c0-17.672498 14.326287-31.998785 31.998785-31.998785h575.971986c17.672498 0 31.998785 14.326287 31.998785 31.998785V372.30054z m0 99.336426V767.981325c0 17.672498-14.326287 31.998785-31.998785 31.998784H224.014007c-17.672498 0-31.998785-14.326287-31.998785-31.998784v-339.003948l74.075089 73.701583c12.414751 12.352329 32.453133 12.429077 44.963051 0.172938l108.018156-105.82828 233.592152 233.592153c13.256932 13.256932 35.020608 12.32777 47.098691-2.01182l132.222417-156.966985zM128.018675 351.995075V767.982348c0 53.016471 42.97886 95.995331 95.995332 95.995331h575.971986c53.016471 0 95.995331-42.97886 95.995332-95.995331v-671.967318c0-53.016471-42.97886-95.995331-95.995332-95.995331H224.014007c-53.016471 0-95.995331 42.97886-95.995332 95.995331v255.980045z"  horiz-adv-x="1024" />

    
    <glyph glyph-name="icon_likegood" unicode="&#60338;" d="M116.072599 383.060605l22.587437-383.981325c0.497327-8.456602 7.500834-15.059997 15.971764-15.059997h36.5658c8.836249 0 15.999392 7.163143 15.999392 15.999392V384c0 8.836249-7.163143 15.999392-15.999392 15.999392h-59.153238c-8.836249 0-15.999392-7.163143-15.999392-15.999392 0-0.313132 0.00921-0.626263 0.027629-0.939395z m-34.931581 80.935334h158.054759c17.672498 0 31.998785-14.326287 31.998785-31.998785v-479.976656c0-17.672498-14.326287-31.998785-31.998785-31.998785H109.374036c-16.942881 0-30.948873 13.205766-31.943526 30.118972l-28.233018 479.978702c-1.037632 17.641799 12.422937 32.784684 30.064736 33.822317a32.846082 32.846082 0 0 0 1.87879 0.054235z m302.047244-479.641012h404.122038a15.998369 15.998369 0 0 1 15.348569 11.484566l106.902752 363.468128a31.984459 31.984459 0 0 1 1.300622 9.028631c0 17.672498-14.326287 31.998785-31.998784 31.998785H687.970804c-45.24446 0-76.202543 45.669132-59.446927 87.697341 24.101931 60.454884 35.925211 116.770494 35.925211 169.098279 0 73.907267-27.838022 118.643144-87.703482 125.826754a490.128877 490.128877 0 0 1-2.293229-12.43931c0.829901 4.808516-3.601015-21.327748-4.946662-28.684296-2.301416-12.577456-4.652973-23.73968-7.455809-34.876322-7.320733-29.093619-17.213034-55.692417-31.254841-81.35489-35.666314-65.179488-90.317005-128.782062-163.605172-191.322443v-433.924807c-0.001023-8.837272 7.16212-16.000416 15.998369-16.000416zM703.046151 506.089639c-4.442172-13.771655-9.467629-27.690666-15.075347-41.757033H878.863459c53.017494 0 95.995331-42.97886 95.995331-95.995331 0-9.168824-1.313925-18.290575-3.900843-27.086915L860.677261-33.702334c-8.010441-27.236318-33.006741-45.939285-61.396325-45.939285H367.18887c-35.344996 0-63.996546 28.652574-63.996546 63.996546V464.332606c79.287811 63.996546 136.441509 127.994116 171.46007 191.990663 52.528354 95.995331 20.530592 191.655018 84.228333 191.655018 128.292921 0 169.564907-99.571786 169.564907-190.84763 0-41.355897-6.231935-84.289732-18.695804-128.800481l-6.703679-22.240537z"  horiz-adv-x="1024" />

    
    <glyph glyph-name="icon_index_line" unicode="&#60339;" d="M895.981325 831.978894c17.672498 0 31.998785-14.326287 31.998784-31.998785v-703.966102c0-17.672498-14.326287-31.998785-31.998784-31.998785s-31.998785 14.326287-31.998785 31.998785V799.980109c0 17.672498 14.326287 31.998785 31.998785 31.998785zM639.994116 479.995331c17.672498 0 31.998785-14.326287 31.998785-31.998785v-351.983563c0-17.672498-14.326287-31.998785-31.998785-31.998785s-31.998785 14.326287-31.998785 31.998785V447.99757c0 17.671475 14.326287 31.997762 31.998785 31.997761z m-255.988232 95.995331c17.672498 0 31.998785-14.326287 31.998785-31.998784v-447.978895c0-17.672498-14.326287-31.998785-31.998785-31.998785s-31.998785 14.326287-31.998785 31.998785V543.992901c0 17.671475 14.326287 31.997762 31.998785 31.997761zM64.021106 0.018675H959.977871c17.672498 0 31.998785-14.326287 31.998785-31.998784s-14.326287-31.998785-31.998785-31.998785H64.021106c-17.672498 0-31.998785 14.326287-31.998785 31.998785s14.326287 31.998785 31.998785 31.998784z m63.997569 319.984779c17.672498 0 31.998785-14.326287 31.998785-31.998785v-191.990662c0-17.672498-14.326287-31.998785-31.998785-31.998785s-31.998785 14.326287-31.998784 31.998785V288.004669c0 17.672498 14.326287 31.998785 31.998784 31.998785z"  horiz-adv-x="1024" />

    
    <glyph glyph-name="icon_live" unicode="&#60340;" d="M628.577089 271.614373l-163.614382-102.258988c-14.986319-9.366322-34.727942-4.810562-44.094264 10.175757a31.998785 31.998785 0 0 0-4.863774 16.959254v204.517976c0 17.672498 14.326287 31.998785 31.998785 31.998785a31.998785 31.998785 0 0 0 16.959253-4.863774l163.614382-102.258989c14.986319-9.366322 19.542078-29.107945 10.175757-44.094264a32.019251 32.019251 0 0 0-10.175757-10.175757zM160.016437 634.733555c-17.672498 0-31.998785-14.326287-31.998785-31.998785v-575.971987c0-17.672498 14.326287-31.998785 31.998785-31.998785h703.966103c17.672498 0 31.998785 14.326287 31.998785 31.998785V602.73477c0 17.672498-14.326287 31.998785-31.998785 31.998785H160.016437z m605.226264 63.996546h98.740862c53.016471 0 95.995331-42.97886 95.995331-95.995331v-575.971987c0-53.016471-42.97886-95.995331-95.995331-95.995331H160.016437c-53.016471 0-95.995331 42.97886-95.995331 95.995331V602.73477c0 53.016471 42.97886 95.995331 95.995331 95.995331h98.740862l-83.878363 83.878362c-12.496615 12.495592-12.496615 32.756031 0 45.252647 12.496615 12.496615 32.756031 12.496615 45.252647 0l129.131009-129.131009h325.474816l129.131009 129.131009c12.495592 12.496615 32.756031 12.496615 45.252647 0 12.496615-12.495592 12.496615-32.756031 0-45.252647l-83.878363-83.878362z"  horiz-adv-x="1024" />

    
    <glyph glyph-name="icon_link" unicode="&#60341;" d="M828.768527 338.747353c-12.495592-12.496615-32.756031-12.496615-45.252647 0-12.495592 12.495592-12.495592 32.756031 0 45.252647l67.87897 67.87897c74.977645 74.977645 74.977645 196.539258 0 271.51588-74.976622 74.977645-196.538235 74.977645-271.51588 0L421.494707 565.010587c-74.976622-74.976622-74.976622-196.538235 0-271.51588 12.496615-12.495592 12.496615-32.756031 0-45.252647-12.495592-12.495592-32.756031-12.495592-45.252647 0-99.969852 99.968829-99.969852 262.051321 0 362.021174l158.384263 158.384263c99.969852 99.968829 262.051321 99.968829 362.021174 0 99.968829-99.969852 99.968829-262.052345 0-362.021174l-67.87897-67.87897zM647.75794 519.75794c99.969852-99.968829 99.969852-262.051321 0-362.021174L489.373677-0.647497c-99.968829-99.969852-262.051321-99.969852-362.021174 0s-99.969852 262.052345 0 362.021174l45.252647 45.252646c12.496615 12.495592 32.756031 12.495592 45.252646 0 12.496615-12.496615 12.496615-32.756031 0-45.252646l-45.252646-45.252647c-74.976622-74.977645-74.976622-196.539258 0-271.51588s196.539258-74.976622 271.51588 0l158.384263 158.384263c74.976622 74.976622 74.976622 196.538235 0 271.51588-12.496615 12.495592-12.496615 32.756031 0 45.252647 12.495592 12.496615 32.756031 12.496615 45.252647 0z"  horiz-adv-x="1024" />

    
    <glyph glyph-name="icon_im_voice" unicode="&#60342;" d="M512 891.624343c-280.357246 0-507.624343-227.275283-507.624343-507.624343s227.267097-507.624343 507.624343-507.624343 507.624343 227.275283 507.624343 507.624343S792.356222 891.624343 512 891.624343z m0-983.5221c-262.832104 0-475.897757 213.069747-475.897757 475.897757S249.167896 859.897757 512 859.897757s475.897757-213.069747 475.897757-475.897757-213.065653-475.897757-475.897757-475.897757zM512 288.820244c69.944002 0 126.906342 56.915267 126.906342 127.107933V574.157921c0 70.191642-56.819077 127.107933-126.906342 127.107933-69.944002 0-126.906342-56.915267-126.906342-127.107933v-158.229744c0-70.191642 56.819077-127.107933 126.906342-127.107933zM718.221782 447.453171c-17.521049 0-31.726585-14.205537-31.726586-31.726586 0-96.371908-78.123288-174.49622-174.496219-174.496219S337.502757 319.353654 337.502757 415.726585c0 17.521049-14.205537 31.726585-31.726585 31.726586s-31.726585-14.205537-31.726586-31.726586c0-120.66315 89.804329-220.335221 206.222805-235.857752v-97.270371c0-17.521049 14.205537-31.726585 31.726586-31.726585s31.726585 14.205537 31.726585 31.726585v97.270371c116.418476 15.522532 206.222805 115.194602 206.222805 235.857752 0 17.521049-14.205537 31.726585-31.726585 31.726586z"  horiz-adv-x="1024" />

    
    <glyph glyph-name="icon_mobilephone" unicode="&#60343;" d="M512-63.977871c17.672498 0 31.998785 14.326287 31.998785 31.998785s-14.326287 31.998785-31.998785 31.998785-31.998785-14.326287-31.998785-31.998785 14.326287-31.998785 31.998785-31.998785zM304.009945 799.980109c-26.508747 0-47.998177-21.48943-47.998177-47.998177v-671.967318c0-26.508747 21.48943-47.997154 47.998177-47.997154h415.98011c26.508747 0 47.997154 21.48943 47.997154 47.997154V751.982956c0 26.508747-21.48943 47.998177-47.997154 47.998177H304.009945z m-15.999392 63.996547h447.978894c53.016471 0 95.995331-42.97886 95.995331-95.995331v-767.96265c0-53.016471-42.97886-95.995331-95.995331-95.995331H288.010553c-53.016471 0-95.995331 42.97886-95.995331 95.995331V767.981325c0 53.017494 42.97886 95.995331 95.995331 95.995331z"  horiz-adv-x="1024" />

    
    <glyph glyph-name="icon_dmail" unicode="&#60344;" d="M842.458317 631.666706c13.075807 11.887748 33.313733 10.923794 45.201482-2.153036 11.887748-13.075807 10.923794-33.313733-2.153037-45.201482L576.573691 303.463756c-36.614919-33.286104-92.532463-33.286104-129.147382 0L138.492214 584.312188c-13.07683 11.887748-14.039761 32.125675-2.152013 45.201482 11.887748 13.07683 32.124651 14.040784 45.201482 2.153036l308.934094-280.849456c12.204973-11.095709 30.843472-11.095709 43.048446 0L842.458317 631.666706zM99.555413 701.265854c-17.522072 0-31.726585-14.204513-31.726585-31.726586v-571.077513c0-17.522072 14.204513-31.726585 31.726585-31.726585h824.889174c17.522072 0 31.726585 14.204513 31.726585 31.726585V669.539268c0 17.522072-14.204513 31.726585-31.726585 31.726586H99.555413z m0 63.452147h824.889174c52.566216 0 95.179756-42.61354 95.179756-95.179756v-571.077513c0-52.566216-42.61354-95.179756-95.179756-95.179757H99.555413c-52.566216 0-95.179756 42.61354-95.179756 95.179757V669.539268c0 52.565193 42.61354 95.178733 95.179756 95.178733z"  horiz-adv-x="1024" />

    
    <glyph glyph-name="icon_message" unicode="&#60345;" d="M320.009338 422.927591c-26.508747 0-47.998177 21.48943-47.998178 47.998177s21.48943 47.998177 47.998178 47.998178 47.998177-21.48943 47.998177-47.998178-21.490453-47.998177-47.998177-47.998177z m191.990662 0c-26.508747 0-47.998177 21.48943-47.998177 47.998177s21.48943 47.998177 47.998177 47.998178 47.998177-21.48943 47.998177-47.998178-21.48943-47.998177-47.998177-47.998177z m191.990662 0c-26.508747 0-47.997154 21.48943-47.997154 47.998177s21.48943 47.998177 47.997154 47.998178c26.508747 0 47.998177-21.48943 47.998178-47.998178s-21.48943-47.998177-47.998178-47.998177zM304.009945 25.803945l184.698583 143.654794a63.99757 63.99757 0 0 0 39.289841 13.481036h351.983563c17.672498 0 31.998785 14.326287 31.998785 31.998785V726.912977c0 17.672498-14.326287 31.998785-31.998785 31.998785H144.017044c-17.672498 0-31.998785-14.326287-31.998784-31.998785v-511.975441c0-17.672498 14.326287-31.998785 31.998784-31.998784h95.995332c35.344996 0 63.996546-28.652574 63.996546-63.996547v-93.13826z m223.989447 93.13826L317.478701-44.795996c-20.924565-16.274662-51.080376-12.504802-67.355037 8.419763a47.994084 47.994084 0 0 0-10.110265 29.468149V118.942205h-95.995331c-53.016471 0-95.995331 42.97886-95.995331 95.995331V726.912977c0 53.016471 42.97886 95.995331 95.995331 95.995331h735.964888c53.016471 0 95.995331-42.97886 95.995331-95.995331v-511.975441c0-53.016471-42.97886-95.995331-95.995331-95.995331H527.999392z"  horiz-adv-x="1024" />

    
    <glyph glyph-name="icon_more" unicode="&#60346;" d="M512 479.318926c-53.013401 0-95.995331-42.98193-95.995331-95.995331s42.98193-95.995331 95.995331-95.995332 95.995331 42.98193 95.995331 95.995332-42.98193 95.995331-95.995331 95.995331m-351.983563 0c-53.013401 0-95.995331-42.98193-95.995331-95.995331s42.98193-95.995331 95.995331-95.995332 95.995331 42.98193 95.995331 95.995332-42.98193 95.995331-95.995331 95.995331m703.966103 0c-53.013401 0-95.995331-42.98193-95.995331-95.995331s42.98193-95.995331 95.995331-95.995332 95.995331 42.98193 95.995331 95.995332-42.98193 95.995331-95.995331 95.995331"  horiz-adv-x="1024" />

    
    <glyph glyph-name="icon_left" unicode="&#60347;" d="M376.24206 384l384.647497-384.647497c12.496615-12.496615 12.496615-32.756031 0-45.252647l-22.626323-22.626323c-12.496615-12.496615-32.756031-12.496615-45.252647 0L263.110443 361.373677c-12.496615 12.496615-12.496615 32.756031 0 45.252646L693.010587 836.526467c12.496615 12.495592 32.756031 12.495592 45.252647 0l22.626323-22.626323c12.496615-12.495592 12.496615-32.756031 0-45.252647L376.24206 384z"  horiz-adv-x="1024" />

    
    <glyph glyph-name="icon_next_arrow" unicode="&#60348;" d="M384.561539-9.148102c-12.365632-12.647041-32.082696-12.551874-44.161802 0.342808l-50.324152 53.724599c-12.023848 12.836353-11.748578 33.491789 0.654916 46.177715l266.968307 273.051863c12.385075 12.667507 12.005428 32.915667-0.891299 45.26595L279.229562 675.252387c-12.877285 12.332886-13.356193 32.516578-1.109264 45.040822l55.647392 56.909128c12.264325 12.542664 32.388664 12.401448 44.645826-0.008187l367.036397-371.605459c12.392238-12.546757 12.409634-32.975019 0.048095-45.616944L384.561539-9.148102z"  horiz-adv-x="1024" />

    
    <glyph glyph-name="icon_notice" unicode="&#60349;" d="M320.009338 495.994724c0-63.996546 0-94.871741-31.998785-191.990663-21.331841-65.37801-63.996546-129.375579-127.994116-191.990662h703.966103c-63.996546 63.996546-106.661252 127.994116-127.994116 191.990662-31.998785 95.995331-31.998785 127.994116-31.998785 191.990663 0 127.994116-31.998785 223.989447-191.990662 223.989447-154.75562 0-191.989639-95.995331-191.989639-223.989447z m282.523585-447.978895H421.467077c13.178137-37.284161 48.735981-63.996546 90.532923-63.996546s77.354785 26.712385 90.532923 63.996546z m3.220344 724.683961c114.993011-31.42164 162.233941-127.552048 162.233942-276.705066 0-89.716324 4.64888-99.556437 28.713972-171.752736 17.921161-53.764508 55.119365-109.561301 112.532982-166.975942 40.316218-40.316218 11.762905-109.249193-45.252646-109.249193H668.791999c-14.823614-73.028247-79.389118-127.994116-156.791999-127.994116S370.031615-25.011394 355.208001 48.015829H160.016437c-57.352219 0-85.751013 69.63087-44.756343 109.74038 57.057507 55.825446 94.02035 111.270223 111.967094 166.273955 15.731286 47.745421 25.325805 105.065917 28.78458 171.96456 0 146.069797 49.270147 243.450684 162.078399 275.986705 9.200546 43.417859 47.750537 75.996858 93.909833 75.996858 45.903469 0 84.282568-32.219819 93.753267-75.278497z"  horiz-adv-x="1024" />

    
    <glyph glyph-name="icon_namecard" unicode="&#60350;" d="M681.374572 556.197874c-0.415462 31.083949 3.77907 54.29765 32.804127 69.959351 5.940292 3.206018 20.013823 4.89652 26.732851 4.896521 7.361665 0.753153 0.073678 6.757914 16.313547 6.757914 16.239869 0 38.82526-7.154957 49.621141-29.30135 10.79588-22.147416 11.709693-46.454008 11.709693-52.280714s5.963829-2.913353 5.963829-11.654434-2.572592-26.03598-11.72402-37.784558c-9.151427-11.747555-12.133342-14.661931-18.098193-23.403013-5.964852-8.741082-8.946766-18.271132-8.946766-26.223244 0-29.136597 49.848315-31.289634 78.744435-49.689703 11.837606-7.538697 20.006659-17.393135 24.505114-29.563316l0.001023 0.001023c3.64604-9.861602-1.39272-20.812001-11.255345-24.457018a19.023262 19.023262 0 0 0-6.601348-1.180895l-242.358817 0.002047c-10.512425 0-19.034519 8.522094-19.034518 19.034518a19.033495 19.033495 0 0 0 1.191128 6.627954c4.516874 12.158924 12.656251 22.004153 24.419156 29.537734 28.732391 18.400069 78.815043 20.553105 78.815043 49.689702 0 7.759731-2.981914 17.482163-8.946766 26.223245-5.963829 8.741082-8.946766 11.654434-17.893532 23.403013-8.946766 11.748578-11.92868 29.043477-11.92868 37.784558 0.002047 8.739035 5.966898 5.825682 5.966898 11.620665zM163.007561 225.367073h380.718001c17.522072 0 31.726585-14.204513 31.726585-31.726585s-14.204513-31.726585-31.726585-31.726586H163.007561c-17.522072 0-31.726585 14.204513-31.726586 31.726586 0.001023 17.522072 14.204513 31.726585 31.726586 31.726585z m0 126.906342h190.359512c17.522072 0 31.726585-14.204513 31.726585-31.726586s-14.204513-31.726585-31.726585-31.726585H163.007561c-17.522072 0-31.726585 14.204513-31.726586 31.726585s14.204513 31.726585 31.726586 31.726586z m-63.452148 348.992439c-17.522072 0-31.726585-14.204513-31.726585-31.726586v-571.077513c0-17.522072 14.204513-31.726585 31.726585-31.726585h824.889174c17.522072 0 31.726585 14.204513 31.726585 31.726585V669.539268c0 17.522072-14.204513 31.726585-31.726585 31.726586H99.555413z m0 63.452147h824.889174c52.566216 0 95.179756-42.61354 95.179756-95.179756v-571.077513c0-52.566216-42.61354-95.179756-95.179756-95.179757H99.555413c-52.566216 0-95.179756 42.61354-95.179756 95.179757V669.539268c0 52.565193 42.61354 95.178733 95.179756 95.178733z"  horiz-adv-x="1024" />

    
    <glyph glyph-name="icon_phone" unicode="&#60351;" d="M594.366939 129.93456c-159.949922 44.407396-286.332331 171.396625-332.337107 334.574055-7.93574 33.57263 0.589424 58.139142 20.833491 76.930114 2.334161 2.166339 8.812713 7.6574 7.883551 6.846941 5.597485 4.881171 10.837836 9.142218 19.834744 16.252149 2.812045 2.220574 2.812045 2.220574 5.558599 4.393054 21.046339 16.672728 30.17116 25.720801 34.406624 34.540677 5.409197 11.263531-8.538467 51.386344-40.708144 92.706425-37.842887 48.608068-70.305229 71.802326-98.924033 71.802326-20.010753 0-40.808428-24.629957-69.484538-82.763982-15.160281-30.733978-16.61133-108.283192-8.523117-161.977091 5.968945-39.624463 27.458375-117.279077 46.62797-162.884764 78.380138-186.474019 248.529353-320.266188 449.951829-352.145246 98.261954-15.363919 197.22692-8.435113 225.184669 15.370059 27.800159 23.671119 41.494043 42.909276 41.494043 51.451836 0 23.763217-29.543873 70.203922-71.062476 103.345739-40.60479 32.412201-79.886445 46.413076-90.551342 41.162492-7.424086-3.65525-15.161305-10.838859-25.971511-24.202215-3.03001-3.746324-21.337981-27.621081-27.841092-35.579333-25.540699-32.458249-44.096311-39.199791-86.37216-29.823236z m36.237319 69.600171l0.445139 0.553609c5.430686 6.613628 23.953551 30.772864 27.774576 35.496446 16.142655 19.956517 29.889751 32.719192 47.458895 41.370223 39.706327 19.550265 100.614535-2.158153 158.744467-48.560996 55.264675-44.11473 95.134731-106.787118 95.134731-153.361877 0-32.958646-22.99062-65.260329-64.002686-100.17963-46.997384-40.016389-160.744008-47.980781-276.618085-29.862121-223.393883 35.356252-412.053684 183.703929-499.004011 390.5663-21.25714 50.572816-44.165896 133.357264-50.913577 178.150446-9.928117 65.907059-8.283664 153.812131 14.411221 199.821001C123.704416 793.946696 155.817812 831.978894 210.914664 831.978894c53.312206 0 100.621698-33.802874 149.422148-96.484471 45.666062-58.655911 66.9846-119.983675 47.899939-159.724795-9.901511-20.61962-23.690562-34.290991-52.357461-57.001225-2.832512-2.241041-2.832512-2.241041-5.615905-4.439102-8.232498-6.506181-12.850679-10.261715-17.455557-14.277168-0.048095-0.041956-5.324262-4.513804-6.405897-5.518691-4.00522-3.716648-4.495384-5.129834-2.434445-13.976316 39.618323-140.435473 149.21851-250.560616 285.85547-288.543695 16.519232-3.64604 10.199293-5.965875 20.781302 7.5213z"  horiz-adv-x="1024" />

    
    <glyph glyph-name="icon_qq" unicode="&#60352;" d="M703.746092-95.976656c-87.12122 0-151.618163 18.280342-191.771675 54.357002-40.99774-36.326347-105.213273-54.357002-191.709253-54.357002-86.683245 0-122.68111 37.592177-136.431275 59.997466-15.999392 26.076912-17.749246 60.356646-4.624321 91.714841 9.030677 21.639856 24.311709 39.576367 43.903929 52.294017a462.004329 462.004329 0 0 0-20.436448 35.701107c-16.21838-17.452487-33.935903-27.983331-51.372018-29.826306-17.779945-1.890047-33.435507 5.015224-43.654242 18.780738-21.530362 29.030174-20.030196 81.167624-19.530822 91.323939 4.750187 66.684772 36.154431 134.868687 93.432972 203.428156-4.687766 30.420847-2.405793 80.746022 30.248931 120.915907C216.208227 728.516498 343.732645 863.368812 511.881296 863.978702c168.523181-0.608867 296.111045-135.63412 300.360836-315.625493 32.654724-40.169885 34.904974-90.496084 30.217209-120.915907 57.278541-68.559469 88.682785-136.696312 93.402273-202.771194 0.562818-10.859325 1.968841-63.012126-19.467377-91.964528-10.281157-13.780865-26.092261-20.670785-43.684942-18.796088-17.436114 1.843998-35.154661 12.374842-51.372018 29.826306-5.655813-11.06194-12.405541-22.983457-20.436448-35.701107 19.593244-12.7023 34.873252-30.638811 43.903929-52.278667 13.123902-31.358195 11.374048-65.653279-4.62432-91.74554-13.753235-22.390963-49.751101-59.983139-136.434346-59.98314zM507.97329-37.900959c0.124843-0.124843 0.249687-0.249687 0.37453-0.359181-0.12382 0.124843-0.248663 0.233314-0.37453 0.359181z m8.905834 0.827855c-0.249687-0.26606-0.531096-0.515746-0.812505-0.780783 0.281409 0.249687 0.562818 0.499373 0.812505 0.780783z m-4.936429 60.684104c21.154809-0.047072 34.123168-8.858762 41.279149-16.264429 14.718213-14.217816 54.93517-39.326681 150.524248-39.32668 57.59065 0 76.43381 20.608364 81.870636 29.467125 5.062296 8.218172 5.124717 21.717627 0.156566 33.576723-3.90596 9.296737-14.31196 25.827225-40.404222 31.873941a32.064276 32.064276 0 0 0-22.811542 20.092617 32.009018 32.009018 0 0 0 4.281513 30.077016c35.935444 48.731888 50.810223 85.683475 56.93471 108.104114a32.011064 32.011064 0 0 0 28.31079 23.436782c13.936407 1.109264 26.092261-6.374174 31.685653-18.608824 9.312086-20.421098 18.780739-33.013905 25.873274-40.264029 1.812275 9.484002 3.000334 22.13923 2.343371 35.029818-3.937682 55.122435-33.686217 114.900913-88.370677 176.960341a32.027437 32.027437 0 0 0-5.499247 33.576723c2.312672 7.031137 9.187243 52.450583-20.468171 82.074274a32.094976 32.094976 0 0 0-9.249665 25.498743C748.337683 687.344796 646.685515 799.479713 511.880273 799.980109c-134.556579-0.500397-236.207723-112.635313-236.207723-260.862239 0-8.484232-3.312442-19.686365-9.312086-25.686009-29.65439-29.639041-22.779819-75.074859-20.217461-82.792634 3.624551-10.812253 1.812275-24.311709-5.749957-32.873712-54.68446-62.059428-84.432994-121.822556-88.4024-177.648003-0.62524-12.467963 0.562818-24.935925 2.343372-34.357505 7.124258 7.265474 16.59291 19.84293 25.904996 40.279378 5.625114 12.233626 17.936511 19.701714 31.685653 18.608824a32.010041 32.010041 0 0 0 28.310789-23.436782c6.124488-22.420639 20.999266-59.372226 56.934711-108.104114a32.004925 32.004925 0 0 0 4.281513-30.077016 32.058137 32.058137 0 0 0-22.811542-20.092617c-26.061562-6.046716-36.498262-22.577205-40.404222-31.889291-4.937452-11.859096-4.90573-25.342178 0.156566-33.545 5.436826-8.874111 24.279986-29.482475 81.870636-29.482475 95.558379 0 135.836735 25.124214 151.305031 40.092113 6.313799 6.592139 19.250436 15.4509 40.374546 15.497973z"  horiz-adv-x="1024" />

    
    <glyph glyph-name="icon_photo" unicode="&#60353;" d="M288.010553 447.99757c-35.344996 0-63.996546 28.652574-63.996546 63.996546s28.652574 63.996546 63.996546 63.996546c35.344996 0 63.996546-28.652574 63.996546-63.996546s-28.65155-63.996546-63.996546-63.996546z m639.969556-302.169018l-258.988565 258.077823L372.528482 136.259616c-12.629645-11.402701-31.975249-10.92584-44.027749 1.084705L220.383316 245.072881l-124.363425-100.357686v-80.699973c0-17.672498 14.326287-31.998785 31.998784-31.998785h767.96265c17.672498 0 31.998785 14.326287 31.998784 31.998785v81.81333z m0 90.346681V703.984778c0 17.672498-14.326287 31.998785-31.998784 31.998785H128.018675c-17.672498 0-31.998785-14.326287-31.998784-31.998785v-477.033627l84.173074 67.926042c25.424042 20.516266 62.219063 18.58938 85.361133-4.469801l86.61673-86.306668 273.934976 247.308549c25.261337 22.805402 63.951521 21.851681 88.058569-2.170433l213.815736-213.063607zM32.023344 159.726074a45.762253 45.762253 0 0 0 0 0.530072V703.984778c0 53.016471 42.97886 95.995331 95.995331 95.995331h767.96265c53.016471 0 95.995331-42.97886 95.995331-95.995331v-639.969556c0-53.016471-42.97886-95.995331-95.995331-95.995331H128.018675c-53.016471 0-95.995331 42.97886-95.995331 95.995331v95.710852z"  horiz-adv-x="1024" />

    
    <glyph glyph-name="icon_redpacket" unicode="&#60354;" d="M799.985993 863.976656H224.014007c-53.016471 0-95.995331-42.97886-95.995332-95.995331v-767.96265c0-53.016471 42.97886-95.995331 95.995332-95.995331h575.971986c53.016471 0 95.995331 42.97886 95.995332 95.995331V767.981325c0 53.017494-42.97886 95.995331-95.995332 95.995331z m31.998785-863.957981c0-17.672498-14.326287-31.998785-31.998785-31.998784H224.014007c-17.672498 0-31.998785 14.326287-31.998785 31.998784V607.057215c57.3031-58.303894 136.441509-100.697423 226.794329-118.194936 10.351766-41.841967 48.148603-72.863495 93.190449-72.863494s82.83766 31.020504 93.190449 72.863494c90.353844 17.498536 169.491229 59.892065 226.794329 118.194936v-607.03854z m0 717.802226c-43.700291-76.847226-128.708384-140.913357-233.40591-164.312276-15.482623 32.230052-48.432059 54.480822-86.578868 54.480822s-71.096245-22.25077-86.578868-54.480822c-104.697527 23.39892-189.70562 87.466074-233.40591 164.312276V767.981325c0 17.672498 14.326287 31.998785 31.998785 31.998784h575.971986c17.672498 0 31.998785-14.326287 31.998785-31.998784v-50.160424z"  horiz-adv-x="1024" />

    
    <glyph glyph-name="icon_patriarch" unicode="&#60355;" d="M348.328313 322.52488c-27.057239 47.446615-39.204907 95.198176-46.236044 123.205043-7.027044 28.006867-12.354376 120.150474 0 154.26034 16.32378 45.064358 52.016701 90.969874 66.485227 90.969874 0.457418 0 0.89437-0.045025 1.308809-0.138146 25.354458-5.724375 27.77253-66.605977 85.051071-106.010429 51.141774-35.18229 147.33665-38.439474 186.921204-51.689243 25.745361-8.618285 48.888454-40.683585 52.938699-62.908772 6.671956-36.56273-2.491751-70.7606-18.893302-98.604762-2.859118-4.855588-5.945409-9.600659-9.174963-14.208606-17.018605-24.279986-11.936867-37.396725 0.300852-37.396725 6.136767 0 14.07353 3.299139 21.924335 10.139941 29.369911 25.595958 54.036707 56.132438 72.605621 90.249467 24.541953 45.087894 38.428218 87.269599 38.428218 123.600039 0 179.309852-102.428857 319.984778-287.985993 319.984778S224.014007 723.301729 224.014007 543.992901c0-53.632501 26.225291-118.777197 45.997613-152.990417 19.764136-34.214243 56.567343-68.477604 78.316693-68.477604zM512 799.980109c165.148317 0 223.989447-132.23572 223.989447-255.987208 0-2.89084-0.159636-6.169513-0.550539-9.853416-17.362436 26.174126-43.091424 49.567929-73.265653 59.668985-17.815761 5.962805-39.166021 9.599635-63.891146 13.809517-35.662221 6.074346-84.503603 14.393825-107.072621 29.918403-18.920932 13.016455-28.073382 30.851659-37.764092 49.733705-12.31549 24.006763-29.189809 56.883545-69.461001 65.97562l-8.269338 1.710968h-3.171226C406.680303 782.774239 452.416973 799.980109 512 799.980109zM839.671854 156.948821l-150.711513 94.198405c-13.561877 8.484232-31.341822 5.593392-41.560558-6.655583L561.15349 140.981151a66.013483 66.013483 0 0 0-8.15575-8.1711c-27.186176-22.624277-67.590398-18.905582-90.152253 8.187473l-86.246293 103.495142c-10.249435 12.265348-27.998681 15.171538-41.560558 6.655583l-150.711514-94.198405c-75.338872-47.092551-120.306017-128.244826-120.306016-217.084177v-3.843538c0-17.671475 14.31196-31.998785 31.998785-31.998785s31.998785 14.32731 31.998784 31.998785v3.843538c0 66.6377 33.748638 127.493719 90.245374 162.804946l127.025045 79.402421 68.372204-82.042551c45.154409-54.200436 126.025275-61.559031 180.365904-16.343223a130.004913 130.004913 0 0 1 16.3115 16.343223l68.372204 82.042551 127.025045-79.402421c56.497759-35.311227 90.245374-96.167247 90.245374-162.804946v-3.843538c0-17.671475 14.31196-31.998785 31.998784-31.998785s31.998785 14.32731 31.998785 31.998785v3.843538c-0.001023 88.839351-44.967144 169.991626-120.30704 217.083154z"  horiz-adv-x="1024" />

    
    <glyph glyph-name="icon_roundclose" unicode="&#60356;" d="M557.252647 384l135.75794-135.75794c12.495592-12.495592 12.495592-32.757055 0-45.252647-12.495592-12.495592-32.757055-12.495592-45.252647 0L512 338.747353 376.24206 202.989413c-12.496615-12.496615-32.757055-12.495592-45.252647 0-12.495592 12.495592-12.496615 32.756031 0 45.252647l135.75794 135.75794L330.989413 519.75794c-12.496615 12.496615-12.495592 32.757055 0 45.252647 12.495592 12.495592 32.756031 12.496615 45.252647 0l135.75794-135.75794 135.75794 135.75794c12.495592 12.495592 32.756031 12.495592 45.252647 0 12.495592-12.495592 12.495592-32.757055 0-45.252647L557.252647 384z m-429.233972 0c0-212.062813 171.918511-383.981325 383.981325-383.981325s383.981325 171.918511 383.981325 383.981325S724.06179 767.981325 512 767.981325 128.018675 596.062813 128.018675 384z m-63.997569 0c0 247.406786 200.572108 447.978894 447.978894 447.978894S959.977871 631.406786 959.977871 384 759.405763-63.977871 512-63.977871 64.021106 136.594237 64.021106 384z"  horiz-adv-x="1024" />

    
    <glyph glyph-name="icon_im_keyboard" unicode="&#60357;" d="M734.085074 447.453171h31.726586c17.522072 0 31.726585-14.204513 31.726585-31.726586v-31.726585c0-17.522072-14.204513-31.726585-31.726585-31.726585h-31.726586c-17.522072 0-31.726585 14.204513-31.726585 31.726585v31.726585c0 17.522072 14.205537 31.726585 31.726585 31.726586z m0 158.632927h31.726586c17.522072 0 31.726585-14.204513 31.726585-31.726586v-31.726585c0-17.522072-14.204513-31.726585-31.726585-31.726585h-31.726586c-17.522072 0-31.726585 14.204513-31.726585 31.726585v31.726585c0 17.522072 14.205537 31.726585 31.726585 31.726586z m-158.631903-158.632927h31.726585c17.522072 0 31.726585-14.204513 31.726586-31.726586v-31.726585c0-17.522072-14.204513-31.726585-31.726586-31.726585h-31.726585c-17.522072 0-31.726585 14.204513-31.726586 31.726585v31.726585c0 17.522072 14.204513 31.726585 31.726586 31.726586z m0 158.632927h31.726585c17.522072 0 31.726585-14.204513 31.726586-31.726586v-31.726585c0-17.522072-14.204513-31.726585-31.726586-31.726585h-31.726585c-17.522072 0-31.726585 14.204513-31.726586 31.726585v31.726585c0 17.522072 14.204513 31.726585 31.726586 31.726586zM353.367073 257.093658h317.264831c17.522072 0 31.726585-14.204513 31.726585-31.726585v-31.726585c0-17.522072-14.204513-31.726585-31.726585-31.726586H353.367073c-17.522072 0-31.726585 14.204513-31.726585 31.726586v31.726585c0 17.522072 14.204513 31.726585 31.726585 31.726585z m63.453171 190.359513h31.726585c17.522072 0 31.726585-14.204513 31.726586-31.726586v-31.726585c0-17.522072-14.204513-31.726585-31.726586-31.726585h-31.726585c-17.522072 0-31.726585 14.204513-31.726586 31.726585v31.726585c0 17.522072 14.204513 31.726585 31.726586 31.726586z m0 158.632927h31.726585c17.522072 0 31.726585-14.204513 31.726586-31.726586v-31.726585c0-17.522072-14.204513-31.726585-31.726586-31.726585h-31.726585c-17.522072 0-31.726585 14.204513-31.726586 31.726585v31.726585c0 17.522072 14.204513 31.726585 31.726586 31.726586z m-158.632927-158.632927h31.726585c17.522072 0 31.726585-14.204513 31.726586-31.726586v-31.726585c0-17.522072-14.204513-31.726585-31.726586-31.726585h-31.726585c-17.522072 0-31.726585 14.204513-31.726585 31.726585v31.726585c0 17.522072 14.204513 31.726585 31.726585 31.726586z m0 158.632927h31.726585c17.522072 0 31.726585-14.204513 31.726586-31.726586v-31.726585c0-17.522072-14.204513-31.726585-31.726586-31.726585h-31.726585c-17.522072 0-31.726585 14.204513-31.726585 31.726585v31.726585c0 17.522072 14.204513 31.726585 31.726585 31.726586z m253.812683-697.983855c262.831081 0 475.897757 213.066677 475.897757 475.897757S774.831081 859.897757 512 859.897757 36.102243 646.831081 36.102243 384 249.168919-91.897757 512-91.897757z m0-31.726586c-280.353153 0-507.624343 227.27119-507.624343 507.624343S231.646847 891.624343 512 891.624343s507.624343-227.27119 507.624343-507.624343-227.27119-507.624343-507.624343-507.624343z"  horiz-adv-x="1024" />

    
    <glyph glyph-name="icon_roundreduce" unicode="&#60358;" d="M288.011576 415.998785h447.978894c17.671475 0 31.997762-14.326287 31.998785-31.998785-0.001023-17.673521-14.326287-31.998785-31.999808-31.999808H288.010553c-17.671475 0-31.997762 14.326287-31.998785 31.998785 0.001023 17.674545 14.325263 31.998785 31.999808 31.999808z m-159.992901-31.998785c0-212.062813 171.918511-383.981325 383.981325-383.981325s383.981325 171.918511 383.981325 383.981325S724.062813 767.981325 512 767.981325 128.018675 596.062813 128.018675 384z m-63.997569 0c0 247.406786 200.572108 447.978894 447.978894 447.978894S959.977871 631.406786 959.977871 384 759.405763-63.977871 512-63.977871 64.021106 136.594237 64.021106 384z"  horiz-adv-x="1024" />

    
    <glyph glyph-name="icon_QRcode" unicode="&#60359;" d="M208.014614 225.182878h127.994116c8.836249 0 15.999392-7.163143 15.999392-15.999392V81.18937c0-8.836249-7.163143-15.999392-15.999392-15.999393H208.014614c-8.836249 0-15.999392 7.163143-15.999392 15.999393V209.183486c0 8.836249 7.163143 15.999392 15.999392 15.999392z m479.976656 479.976656h127.994116c8.836249 0 15.999392-7.163143 15.999392-15.999393v-127.994116c0-8.836249-7.163143-15.999392-15.999392-15.999392H687.99127c-8.836249 0-15.999392 7.163143-15.999392 15.999392V689.160141c0 8.836249 7.163143 15.999392 15.999392 15.999393z m-479.976656 0h127.994116c8.836249 0 15.999392-7.163143 15.999392-15.999393v-127.994116c0-8.836249-7.163143-15.999392-15.999392-15.999392H208.014614c-8.836249 0-15.999392 7.163143-15.999392 15.999392V689.160141c0 8.836249 7.163143 15.999392 15.999392 15.999393z m399.980717 47.997154v-255.987209c0-8.836249 7.163143-15.999392 15.999393-15.999392h255.987208c8.836249 0 15.999392 7.163143 15.999393 15.999392V753.156688c0 8.836249-7.163143 15.999392-15.999393 15.999392H623.994724c-8.836249 0-15.999392-7.163143-15.999393-15.999392z m0 79.996962h287.985994c35.344996 0 63.996546-28.652574 63.996546-63.996547v-287.985993c0-35.344996-28.652574-63.996546-63.996546-63.996546H607.995331c-35.344996 0-63.996546 28.652574-63.996546 63.996546V769.15608c0 35.344996 28.65155 63.99757 63.996546 63.99757z m-479.976656-559.973618v-255.987209c0-8.836249 7.163143-15.999392 15.999393-15.999392h255.987208c8.836249 0 15.999392 7.163143 15.999393 15.999392V273.180032c0 8.836249-7.163143 15.999392-15.999393 15.999392H144.017044c-8.835226 0-15.998369-7.163143-15.998369-15.999392z m0 79.995939h287.985994c35.344996 0 63.996546-28.652574 63.996546-63.996547v-287.985993c0-35.344996-28.652574-63.996546-63.996546-63.996546H128.018675c-35.344996 0-63.996546 28.652574-63.996546 63.996546V289.179424c-0.001023 35.344996 28.65155 63.996546 63.996546 63.996547z m0 399.980717v-255.987209c0-8.836249 7.163143-15.999392 15.999393-15.999392h255.987208c8.836249 0 15.999392 7.163143 15.999393 15.999392V753.156688c0 8.836249-7.163143 15.999392-15.999393 15.999392H144.017044c-8.835226 0-15.998369-7.163143-15.998369-15.999392z m0 79.996962h287.985994c35.344996 0 63.996546-28.652574 63.996546-63.996547v-287.985993c0-35.344996-28.652574-63.996546-63.996546-63.996546H128.018675c-35.344996 0-63.996546 28.652574-63.996546 63.996546V769.15608c-0.001023 35.344996 28.65155 63.99757 63.996546 63.99757z m671.967318-767.963673h-95.995331v-95.995331c0-17.672498-14.326287-31.998785-31.998784-31.998785h-95.995332c-17.672498 0-31.998785 14.326287-31.998784 31.998785v95.995331c0 17.672498 14.326287 31.998785 31.998784 31.998785h95.995332v95.995331h-95.995332c-17.672498 0-31.998785 14.326287-31.998784 31.998785v95.995331c0 17.672498 14.326287 31.998785 31.998784 31.998785h95.995332c17.672498 0 31.998785-14.326287 31.998784-31.998785v-95.995331h95.995331v95.995331c0 17.672498 14.326287 31.998785 31.998785 31.998785h95.995331c17.672498 0 31.998785-14.326287 31.998785-31.998785v-351.98254c0-17.672498-14.326287-31.998785-31.998785-31.998784h-95.995331c-17.672498 0-31.998785 14.326287-31.998785 31.998784v95.994308z"  horiz-adv-x="1024" />

    
    <glyph glyph-name="icon_savememo" unicode="&#60360;" d="M863.534332 384c0-17.672498-14.326287-31.998785-31.998785-31.998785s-31.998785 14.326287-31.998785 31.998785c0 53.016471-42.97886 95.995331-95.995331 95.995331-17.672498 0-31.998785 14.326287-31.998785 31.998785s14.326287 31.998785 31.998785 31.998785c88.361467 0 159.992901-71.631434 159.992901-159.992901z m-351.983563 0c0-50.815339 19.742646-98.353029 54.509474-134.01218a642.830721 642.830721 0 0 0 4.774747-4.850471c3.079128-3.192715 5.89015-6.304589 8.712429-9.739829 17.292851-21.050432 27.998681-45.932122 27.998681-76.027557v-63.355956h191.990662v63.747882c0 29.121248 10.033517 53.527101 26.348088 73.857125a144.827503 144.827503 0 0 0 8.53335 9.689687 264.916579 264.916579 0 0 0 5.012154 5.066389c35.733852 35.803437 56.100716 84.021625 56.100716 135.625933 0 106.033965-85.957721 191.990662-191.990662 191.990663s-191.989639-85.957721-191.989639-191.991686z m-63.996547 0c0 141.377938 114.609271 255.987209 255.987209 255.987209s255.988232-114.609271 255.988232-255.987209c0-70.599941-28.579919-134.523833-74.801637-180.834578-6.704702-6.716982-21.193695-20.009729-21.193694-43.403533v-63.747882c0-35.344996-28.652574-63.996546-63.996547-63.996547H607.5461c-35.344996 0-63.996546 28.652574-63.996547 63.996547V159.369963c0 24.235984-15.984043 38.426171-23.311938 45.942355-44.975331 46.12962-72.683393 109.172445-72.683393 178.687682zM814.412564 0.018675c-22.131043-38.257326-63.495126-63.996546-110.87011-63.996546-47.376007 0-88.74009 25.739221-110.87011 63.996546h221.74022z m-493.955018 767.029394a31.993668 31.993668 0 0 1-14.944364-8.429996L137.847531 591.073172a31.991622 31.991622 0 0 1-8.476045-15.08251h159.088298c17.672498 0 31.998785 14.326287 31.998785 31.998785V767.048069z m63.997569 0.933256v-159.991878c0-53.016471-42.97886-95.995331-95.995331-95.995331H128.466883v-447.978894c0-17.672498 14.326287-31.998785 31.998785-31.998785h255.988232c17.672498 0 31.998785-14.326287 31.998785-31.998785s-14.326287-31.998785-31.998785-31.998785H160.465668c-53.016471 0-95.995331 42.97886-95.995331 95.995331V568.438663a95.994308 95.994308 0 0 0 28.140921 67.903529L260.277932 803.887093a95.996354 95.996354 0 0 0 67.85441 28.091801H832.432986c53.016471 0 95.995331-42.97886 95.995332-95.995331v-63.996546c0-17.672498-14.326287-31.998785-31.998785-31.998785s-31.998785 14.326287-31.998785 31.998785v63.996546c0 17.672498-14.326287 31.998785-31.998785 31.998785H384.455115z"  horiz-adv-x="1024" />

    
    <glyph glyph-name="icon_roundadd" unicode="&#60361;" d="M543.998785 415.998785h191.990662c17.672498 0 31.998785-14.326287 31.998785-31.998785s-14.326287-31.998785-31.998785-31.998785H543.998785v-191.990662c0-17.672498-14.326287-31.998785-31.998785-31.998785s-31.998785 14.326287-31.998785 31.998785V352.001215H288.010553c-17.672498 0-31.998785 14.326287-31.998785 31.998785s14.326287 31.998785 31.998785 31.998785h191.990662V607.989447c0 17.672498 14.326287 31.998785 31.998785 31.998785s31.998785-14.326287 31.998785-31.998785v-191.990662z m-415.98011-31.998785c0-212.062813 171.918511-383.981325 383.981325-383.981325s383.981325 171.918511 383.981325 383.981325S724.06179 767.981325 512 767.981325 128.018675 596.062813 128.018675 384z m-63.997569 0c0 247.406786 200.572108 447.978894 447.978894 447.978894S959.977871 631.406786 959.977871 384 759.405763-63.977871 512-63.977871 64.021106 136.594237 64.021106 384z"  horiz-adv-x="1024" />

    
    <glyph glyph-name="icon_refresh" unicode="&#60362;" d="M844.617493 575.990662a384.730385 384.730385 0 0 1-30.014594 44.413536c-72.372308 92.496647-182.910866 147.577127-302.602899 147.577127-212.066907 0-383.981325-171.914418-383.981325-383.981325s171.914418-383.981325 383.981325-383.981325c156.391886 0 295.340495 94.355995 354.539782 236.242516 6.804986 16.309454 25.542746 24.01495 41.8522 17.209964 16.309454-6.804986 24.01495-25.542746 17.209964-41.852201-69.059865-165.518754-231.1618-275.596825-413.601946-275.596825-247.411903 0-447.978894 200.566992-447.978894 447.978894S264.588097 831.978894 512 831.978894c139.588175 0 268.630157-64.300468 353.005846-172.137498a448.801632 448.801632 0 0 0 30.975479-44.975331V799.980109c0 17.672498 14.326287 31.998785 31.998784 31.998785s31.998785-14.326287 31.998785-31.998785v-255.987208c0-8.836249-3.581572-16.835434-9.372461-22.626324-5.79089-5.79089-13.790074-9.372461-22.626324-9.372461H671.991878c-17.672498 0-31.998785 14.326287-31.998785 31.998785s14.326287 31.998785 31.998785 31.998785h172.625615z"  horiz-adv-x="1024" />

    
    <glyph glyph-name="icon_search" unicode="&#60363;" d="M423.401126 184.582181c159.050436 0 287.985993 128.935558 287.985994 287.985994S582.451562 760.554168 423.401126 760.554168 135.415133 631.618611 135.415133 472.568175s128.935558-287.985993 287.985993-287.985994z m270.491551 62.74709l43.980677-43.980677c10.705829 2.819209 22.590508 0.035816 30.780027-8.153704l169.866782-169.866782c18.708084-18.708084 18.809391-48.938596-0.065491-67.813479-18.7439-18.7439-49.136094-18.741853-67.813479-0.065492L700.774411 127.31592c-8.360412 8.360412-11.131525 20.180622-8.229428 30.855752l-43.90393 43.904952c-61.037145-50.880831-139.563616-81.490989-225.238904-81.490989-194.394409 0-351.983563 157.588131-351.983563 351.983563S229.006717 824.551738 423.401126 824.551738s351.983563-157.588131 351.983563-351.983563c0-85.676311-30.610158-164.201759-81.492012-225.238904z"  horiz-adv-x="1024" />

    
    <glyph glyph-name="icon_scan" unicode="&#60364;" d="M64.021106 384c0 17.672498 14.07353 31.998785 31.887244 31.998785h832.182277c17.6111 0 31.887244-14.202467 31.887244-31.998785 0-17.672498-14.07353-31.998785-31.887244-31.998785H95.909373c-17.6111 0-31.888268 14.20349-31.888267 31.998785zM959.977871 543.992901c0-17.672498-14.326287-31.998785-31.998785-31.998785s-31.998785 14.326287-31.998785 31.998785V735.983563c0 17.672498-14.326287 31.998785-31.998784 31.998785H160.016437c-17.672498 0-31.998785-14.326287-31.998785-31.998785v-191.990662c0-17.672498-14.326287-31.998785-31.998785-31.998785s-31.998785 14.326287-31.998785 31.998785V735.983563c0 53.016471 42.97886 95.995331 95.995332 95.995331H863.981517c53.016471 0 95.995331-42.97886 95.995331-95.995331v-191.990662z m0-319.984779v-191.990662c0-53.016471-42.97886-95.995331-95.995331-95.995331H160.016437c-53.016471 0-95.995331 42.97886-95.995331 95.995331V224.008122c0 17.672498 14.326287 31.998785 31.998785 31.998785s31.998785-14.326287 31.998784-31.998785v-191.990662c0-17.672498 14.326287-31.998785 31.998785-31.998785h703.966103c17.672498 0 31.998785 14.326287 31.998785 31.998785V224.008122c0 17.672498 14.326287 31.998785 31.998785 31.998785s31.996738-14.32731 31.996738-31.998785z"  horiz-adv-x="1024" />

    
    <glyph glyph-name="icon_send" unicode="&#60365;" d="M218.786958 383.765663L69.050656 743.133404c-22.806425 54.735625 34.657334 108.373243 87.694271 81.855286l767.963673-383.981325c47.168276-23.584138 47.168276-90.89722 0-114.481358L156.744927-57.456341c-53.036937-26.517957-110.500697 27.118638-87.694271 81.854263L218.786958 383.765663z m613.771895-31.764448H274.881534L128.124076-0.215662l704.434777 352.216877z m-0.936325 63.99757L128.124076 767.746988l146.562007-351.749226h556.936445z"  horiz-adv-x="1024" />

    
    <glyph glyph-name="icon_principal" unicode="&#60366;" d="M608.705506 96.014007h127.994116c35.344996 0 63.996546-28.652574 63.996546-63.996547H544.707936c0 35.344996 28.652574 63.996546 63.99757 63.996547zM417.792385 364.927619c14.895245-24.828478 23.133883-49.166793 23.133883-76.921927 0-88.714508-50.135864-121.615848-161.599492-153.522536-3.614317-1.034563-19.608593-5.568832-23.87885-6.792706-8.989745-2.577708-16.19996-4.711302-23.029506-6.835686-31.258934-9.721409-53.327556-19.082614-70.601988-30.520107-31.390941-20.784372-51.228755-49.863664-60.931744-90.315982h822.216298c-9.590426 40.393989-29.436426 69.428256-61.021796 90.224908-17.044188 11.221576-38.549991 20.455891-68.452021 29.925566-7.106862 2.25025-14.618952 4.503571-23.968901 7.212262-4.536316 1.313925-21.253046 6.094812-24.891924 7.145748-110.138446 31.827893-160.009274 65.00655-160.009273 153.478533 0 27.53103 8.032954 51.750641 22.591531 76.472696 4.737908 8.046257 9.781784 15.59314 16.899902 25.6154-3.647063-5.135974 12.267395 17.110703 15.726169 22.146393 22.913872 33.350572 32.719192 59.516512 32.719193 99.753935v95.995331c0 99.348706-57.684794 159.991878-159.982668 159.991878-103.730503 0-161.27408-60.542888-159.999041-159.165046l0.005117-0.827855v-43.874253c0-29.051663 0-29.051663-0.005117-52.948933-0.518816-40.121789 9.190313-65.942875 32.558533-99.380428 3.458775-4.948709 18.756179-26.003234 15.536858-21.539572 7.141654-9.899464 12.215206-17.368576 16.984837-25.317619zM288.720727 607.989447C287.065018 735.983563 367.206266 831.978894 512.711198 831.978894c143.837966 0 223.979214-95.732341 223.979214-223.989447v-95.995331c0-127.994116-87.935772-159.991878-87.935772-223.989447 0-95.995331 151.314241-80.313164 248.517074-144.310733 45.429679-29.910217 74.794473-72.873728 88.095407-128.890533 8.16496-34.388205-13.09218-68.88488-47.481408-77.050863a64.002686 64.002686 0 0 0-14.784727-1.731434l-822.215275-0.001024c-35.344996 0-63.99757 28.652574-63.997569 63.99757 0 5.027503 0.592494 10.037611 1.765203 14.926968 13.419637 55.94722 42.696428 98.863658 87.832418 128.749316 96.655364 63.996546 250.443959 48.315402 250.443959 144.310733 0 63.996546-89.86368 95.995331-88.208995 223.989447v95.995331z"  horiz-adv-x="1024" />

    
    <glyph glyph-name="icon_scan_namecard" unicode="&#60367;" d="M543.726585 288.820244h444.171172c17.522072 0 31.726585-14.204513 31.726586-31.726586s-14.204513-31.726585-31.726586-31.726585H543.726585c-17.522072 0-31.726585 14.204513-31.726585 31.726585s14.204513 31.726585 31.726585 31.726586z m412.444587 95.179756v31.726585c0 17.522072-14.204513 31.726585-31.726585 31.726586H607.179756c-17.522072 0-31.726585-14.204513-31.726585-31.726586v-31.726585c0-17.522072-14.204513-31.726585-31.726586-31.726585s-31.726585 14.204513-31.726585 31.726585v31.726585c0 52.566216 42.61354 95.179756 95.179756 95.179757h317.264831c52.566216 0 95.179756-42.61354 95.179756-95.179757v-31.726585c0-17.522072-14.204513-31.726585-31.726586-31.726585s-31.726585 14.204513-31.726585 31.726585z m63.453171-253.81166v-31.726585c0-52.566216-42.61354-95.179756-95.179756-95.179756H607.179756c-52.566216 0-95.179756 42.61354-95.179756 95.179756v31.726585c0 17.522072 14.204513 31.726585 31.726585 31.726586s31.726585-14.204513 31.726586-31.726586v-31.726585c0-17.522072 14.204513-31.726585 31.726585-31.726585h317.264831c17.522072 0 31.726585 14.204513 31.726585 31.726585v31.726585c0 17.522072 14.204513 31.726585 31.726585 31.726586s31.726585-14.204513 31.726586-31.726586zM205.476815 587.924459c-0.415462 31.083949 3.77907 54.29765 32.804127 69.959352 5.940292 3.206018 20.013823 4.89652 26.732851 4.89652 7.361665 0.753153 0.073678 6.757914 16.313547 6.757914s38.82526-7.154957 49.621141-29.30135c10.79588-22.147416 11.709693-46.454008 11.709693-52.280713s5.963829-2.913353 5.963828-11.654435-2.572592-26.03598-11.724019-37.784558c-9.151427-11.747555-12.133342-14.661931-18.098193-23.403012-5.964852-8.741082-8.946766-18.271132-8.946766-26.223245 0-29.136597 49.849338-31.289634 78.744435-49.689702 11.837606-7.538697 20.006659-17.393135 24.505113-29.563317l0.001024 0.001024c3.64604-9.861602-1.39272-20.812001-11.255345-24.457018a19.023262 19.023262 0 0 0-6.601348-1.180896l-242.358817 0.002047c-10.512425 0-19.034519 8.522094-19.034519 19.034519a19.033495 19.033495 0 0 0 1.191129 6.627954c4.516874 12.158924 12.656251 22.004153 24.419156 29.537733C188.19829 457.602322 238.280942 459.755358 238.280942 488.891955c0 7.759731-2.981914 17.482163-8.946767 26.223245-5.964852 8.741082-8.946766 11.654434-17.893532 23.403013-8.946766 11.748578-11.92868 29.043477-11.92868 37.784558 0 8.740058 5.964852 5.826705 5.964852 11.621688z m814.147528 18.161639c0-17.522072-14.204513-31.726585-31.726586-31.726586s-31.726585 14.204513-31.726585 31.726586V669.539268c0 17.522072-14.204513 31.726585-31.726585 31.726586H99.555413c-17.522072 0-31.726585-14.204513-31.726585-31.726586v-571.077513c0-17.522072 14.204513-31.726585 31.726585-31.726585h317.264831c17.522072 0 31.726585-14.204513 31.726585-31.726586s-14.204513-31.726585-31.726585-31.726585H99.555413c-52.566216 0-95.179756 42.61354-95.179756 95.179756V669.539268c0 52.566216 42.61354 95.179756 95.179756 95.179757h824.889174c52.566216 0 95.179756-42.61354 95.179756-95.179757v-63.45317z"  horiz-adv-x="1024" />

    
    <glyph glyph-name="icon_secret" unicode="&#60368;" d="M736.687342 16.007835c70.688969 0 127.994116 42.97886 127.994116 95.995331 0 9.694803-1.092891 22.73991-3.499707 37.586037-25.429159-12.226462-66.592674-4.440126-82.748633 24.164352-23.26896 40.415478 10.958586 53.444213-48.198745 144.450926-58.189284-120.292714-121.540124-136.227638-121.540124-206.201315-0.001023-53.016471 57.3031-95.995331 127.993093-95.995331z m-191.991686 95.995331c0 127.994116 144.460136 160.322405 144.460136 319.984778 31.998785 0 143.525857-95.995331 143.525858-223.989447 16.821107 0 31.998785 31.884175 31.998785 63.996546 0 0 63.962777-62.168921 63.962777-159.991877 0-97.823979-95.960539-159.971411-191.95587-159.971412s-191.991686 63.97608-191.991686 159.971412zM270.092461 62.135408l15.773242 6.477528a31.998785 31.998785 0 0 0 26.643824-1.068331l15.220656-7.729032c38.971593-19.783579 81.70179-33.206286 125.891222-39.569204 17.492396-2.518357 29.629831-18.74083 27.111474-36.232203-2.51938-17.491373-18.74083-29.629831-36.233226-27.110451-51.059909 7.352455-100.497878 22.88215-145.741315 45.850258l-2.146897 1.090844-2.216481-0.910742c-53.134151-21.799492-109.688191-32.856315-167.983899-32.856316h-0.86981c-23.305799 0-38.793538 24.116257-29.098735 45.309952 14.242376 31.133068 21.629623 65.063855 21.629623 99.550297 0 28.440749-4.874007 56.039317-14.291494 81.72021l-17.993816 46.282092c-13.231349 38.715767-21.066805 94.536097-21.066805 141.052527 0 233.250368 203.907063 431.979502 447.978894 431.979502 224.060055 0 416.890852-168.08623 444.627567-380.535853 2.288113-17.524119-10.063193-33.583886-27.586289-35.871999-17.524119-2.288113-33.583886 10.063193-35.871999 27.586289-23.563672 180.482561-189.155081 324.823993-381.169279 324.823993-209.090109 0-383.981325-170.45109-383.981325-367.981932 0-39.923268 6.873548-88.886423 17.165962-119.092376l17.754362-45.605687c12.239765-33.351596 18.431791-68.415183 18.431792-104.355743 0-26.52819-3.455705-52.812833-10.217713-78.212316 33.878598 3.992941 66.76152 12.493545 98.240465 25.408693z"  horiz-adv-x="1024" />

    
    <glyph glyph-name="icon_share" unicode="&#60369;" d="M789.476639 293.494707c0 17.672498 14.326287 31.998785 31.998785 31.998784s31.998785-14.326287 31.998784-31.998784v-255.988232c0-53.016471-42.97886-95.995331-95.995331-95.995332H149.507082c-53.016471 0-95.995331 42.97886-95.995331 95.995332V613.479485c0 53.016471 42.97886 95.995331 95.995331 95.995331h223.989447c17.672498 0 31.998785-14.326287 31.998785-31.998785s-14.326287-31.998785-31.998785-31.998785H149.507082c-17.672498 0-31.998785-14.326287-31.998785-31.998784v-575.971987c0-17.672498 14.326287-31.998785 31.998785-31.998785h607.970772c17.672498 0 31.998785 14.326287 31.998785 31.998785V293.494707z m71.761394 351.983563L734.851531 771.863748c-12.495592 12.495592-12.495592 32.756031 0 45.252647 12.496615 12.496615 32.756031 12.496615 45.252646 0l181.010587-181.010587c12.496615-12.496615 12.496615-32.756031 0-45.252646L780.105201 409.842575c-12.496615-12.496615-32.756031-12.496615-45.252647 0-12.495592 12.495592-12.495592 32.756031 0 45.252646l126.385479 126.385479H757.477854c-212.066907 0-383.981325-171.914418-383.981325-383.981325 0-17.672498-14.326287-31.998785-31.998784-31.998784s-31.998785 14.326287-31.998785 31.998784c0 247.411903 200.566992 447.978894 447.978894 447.978895h103.760179z"  horiz-adv-x="1024" />

    
    <glyph glyph-name="icon_sms" unicode="&#60370;" d="M244.675582 77.66715l16.799618 6.650467a59.449997 59.449997 0 0 0 47.993061-1.874697l16.20917-7.933693c56.710606-27.750017 121.235179-42.491767 186.321546-42.491767 209.413474 0 383.981325 163.998121 383.981324 351.983563S721.413474 735.983563 512 735.983563 128.018675 571.985442 128.018675 384c0-38.156018 6.891967-85.48086 16.358573-112.345718l19.104104-47.315632c14.182001-37.249369 21.36254-76.445066 21.36254-116.566855a328.276628 328.276628 0 0 0-3.685949-49.066509 383.696846 383.696846 0 0 1 63.517639 18.961864zM959.977871 384c0-221.178425-200.964034-415.980109-447.978894-415.980109-74.91113 0-149.189857 17.003256-214.792995 49.163723l-16.395412 8.040116-16.985859-6.737448c-53.035914-21.013593-109.494787-31.680537-167.82631-31.680536h-0.937348c17.353227 36.632315 26.41665 76.633355 26.416649 117.376291 0 33.505092-5.967922 66.087161-17.740036 97.065709l-18.879999 46.818305C71.028707 287.145092 64.022129 342.75462 64.022129 383.997953 64.021106 605.179448 264.98514 799.980109 512 799.980109S959.977871 605.179448 959.977871 384z"  horiz-adv-x="1024" />

    
    <glyph glyph-name="icon_setting" unicode="&#60371;" d="M513.796926-63.977871c-5.249561 0-10.530844 0.077771-15.780405 0.26606a455.752951 455.752951 0 0 0-33.561374 2.422165c-15.249309 1.672082-27.154453 13.890358-28.404933 29.139668-1.812275 21.686928-10.624988 41.575908-25.498744 57.497528-35.311227 37.904285-93.745081 41.091884-132.868123 7.233752-11.562337-9.999748-28.592198-10.406001-40.716331-0.952698-26.936489 21.171182-51.497884 45.51359-72.996524 72.324212-9.561773 11.952216-9.342786 28.998451 0.531096 40.685631 14.062274 16.60826 21.904892 36.872792 22.654976 58.637492 1.781576 51.825342-37.248346 95.354741-88.871074 99.088786-15.280008 1.109264-27.65485 12.921287-29.467125 28.138874a451.200262 451.200262 0 0 0-2.874467 69.105914c0.406253 11.343349 1.187035 22.530133 2.405793 33.592072 1.655709 15.249309 13.905708 27.154453 29.185716 28.420283 21.655206 1.781576 41.498136 10.593266 57.435107 25.468045 37.936007 35.341926 41.091884 93.714382 7.250124 132.899846-9.999748 11.593036-10.406001 28.670993-0.937348 40.71633 21.248953 26.967188 45.560662 51.528584 72.340585 72.964802 11.906168 9.593496 28.967752 9.343809 40.685631-0.546445 16.59291-14.045901 36.872792-21.874193 58.653865-22.639627 52.841485-2.437515 95.339392 37.263695 99.088786 88.901773 1.093914 15.280008 12.905938 27.624151 28.123524 29.451776a452.740338 452.740338 0 0 0 69.121264 2.859117 458.812637 458.812637 0 0 0 33.561373-2.405793c15.249309-1.655709 27.154453-13.905708 28.435633-29.185716 1.781576-21.670555 10.561543-41.545208 25.436322-57.465806 35.311227-37.904285 93.745081-41.076534 132.931568-7.218402 11.562337 9.999748 28.686343 10.406001 40.685631 0.921999 26.967188-21.201881 51.497884-45.528939 72.964802-72.308863 9.593496-11.952216 9.342786-29.013801-0.562818-40.70098-14.030551-16.57756-21.874193-36.842093-22.624277-58.622143-1.781576-51.809993 37.248346-95.339392 88.901773-99.088785 15.311731-1.124614 27.65485-12.921287 29.467125-28.138874 2.687202-22.654976 3.656273-45.904493 2.843768-69.090565-0.406253-11.343349-1.187035-22.545482-2.405793-33.607422-1.655709-15.217586-13.905708-27.139104-29.155017-28.404933-21.655206-1.796926-41.560558-10.608615-57.497529-25.468045-37.904285-35.341926-41.060161-93.729731-7.218401-132.899846 9.999748-11.593036 10.406001-28.65462 0.937348-40.700981-21.217231-26.951839-45.528939-51.513234-72.340585-72.981175-11.968589-9.578146-28.998451-9.342786-40.685631 0.562819-16.562211 14.030551-36.810371 21.842471-58.622142 22.607904-52.934606 2.28095-95.339392-37.248346-99.088786-88.886423-1.093914-15.280008-12.905938-27.6395-28.123524-29.451776a452.746478 452.746478 0 0 0-53.340859-3.14155z m-18.624173 64.433498c1.687432-0.077771 3.374864-0.156566 5.062296-0.202615a397.114436 397.114436 0 0 1 35.560913 0.374531c17.936511 72.136947 83.277682 123.30635 160.804383 120.838135 26.498514-0.937348 52.40351-8.514931 75.120908-21.764699a381.427152 381.427152 0 0 1 28.65462 28.888957c-38.34226 63.669088-28.030403 146.633638 28.28009 199.131293 19.374256 18.077727 43.060725 31.029714 68.527746 37.732369 0.062422 1.719154 0.156566 3.452635 0.218988 5.17179a395.750369 395.750369 0 0 1-0.37453 35.513842c-72.152297 17.905812-123.525338 83.871199-120.838136 160.789033 0.906649 26.498514 8.499581 52.41886 21.74935 75.15263a387.007241 387.007241 0 0 1-28.873608 28.639271c-63.684438-38.325887-146.618289-28.01403-199.146642 28.26474-18.374486 19.701714-31.18628 43.044352-37.811164 68.543096-1.687432 0.077771-3.343141 0.156566-5.030573 0.202615-11.842723 0.390903-23.780613 0.312108-35.560914-0.37453-17.905812-72.152297-82.777285-123.213229-160.804383-120.838136-26.936489 0.952698-52.497655 8.390088-75.215052 21.732977a392.163681 392.163681 0 0 1-28.592198-28.841885c38.34226-63.684438 28.030403-146.648988-28.280091-199.131293-19.374256-18.077727-43.060725-31.045063-68.527746-37.747719-0.062422-1.719154-0.156566-3.437286-0.218987-5.15644-0.406253-11.812023-0.249687-23.701818 0.406252-35.513842 72.121598-17.905812 123.493615-83.871199 120.806414-160.804383-0.906649-26.920116-8.343015-52.497655-21.717628-75.215052a389.053853 389.053853 0 0 1 28.841885-28.576849c63.71616 38.404682 146.618289 28.01403 199.146643-28.26474 18.374486-19.701714 31.18628-43.027979 37.811164-68.543096z m18.467607 191.553711c-105.870236 0-191.990662 86.120426-191.990662 191.990662s86.120426 191.990662 191.990662 191.990662 191.990662-86.120426 191.990662-191.990662-86.120426-191.990662-191.990662-191.990662z m0 319.984778c-70.590731 0-127.994116-57.418734-127.994116-127.994116s57.403385-127.994116 127.994116-127.994116 127.994116 57.418734 127.994116 127.994116-57.403385 127.994116-127.994116 127.994116z"  horiz-adv-x="1024" />

    
    <glyph glyph-name="icon_star" unicode="&#60372;" d="M512 692.915675L577.199954 495.927185l14.522762-43.887556h244.308215l-157.179832-131.697461-31.530111-26.41665 10.937097-39.653115 56.411801-204.547652-165.589363 117.718075-37.080523 26.360367-37.080523-26.361391-165.597549-117.722168 56.418964 204.552769 10.937096 39.652092-31.53011 26.417673-157.179832 131.697461h244.304121l14.526855 43.887556 65.200978 196.98849m0 139.063219c-11.816117 0-23.63121-6.791683-28.127617-20.375049l-97.82705-295.566646H93.719498c-27.710109 0-40.267099-34.785248-18.987446-52.612265L304.048831 271.288962l-82.039481-297.444413c-5.655813-20.513196 10.561543-37.82242 28.662806-37.82242 5.698792 0 11.585873 1.717108 17.030885 5.588275l244.296959 173.672458L756.301052-58.389596c5.445012-3.873214 11.335163-5.588275 17.030885-5.588275 18.10024 0 34.31862 17.310248 28.65462 37.82242L719.951169 271.287939l229.316779 192.135972c21.280676 17.827017 8.725732 52.612265-18.991539 52.612264H637.954667L540.127617 811.603845c-4.496407 13.583366-16.311501 20.37505-28.127617 20.375049z"  horiz-adv-x="1024" />

    
    <glyph glyph-name="icon_subordinate" unicode="&#60373;" d="M799.985993 32.01746h127.994116V160.010553H799.985993v-127.993093z m-351.983563 0h127.994116V160.010553H448.00243v-127.993093z m-21.331841 191.990662h170.658822c23.562649 0 42.664705-19.101033 42.664705-42.664705v-170.658821c0-23.562649-19.101033-42.664705-42.664705-42.664705H426.670589c-23.562649 0-42.664705 19.102057-42.664705 42.664705V181.343417c0 23.562649 19.102057 42.664705 42.664705 42.664705z m-330.650698-191.990662h127.994116V160.010553H96.019891v-127.993093z m351.982539 575.971987h127.994116V735.983563H448.00243v-127.994116z m31.998785-191.990662V543.992901h-53.330626c-23.562649 0-42.664705 19.101033-42.664705 42.664705V757.315404c0 23.562649 19.101033 42.664705 42.664705 42.664705h170.658822c23.562649 0 42.664705-19.101033 42.664705-42.664705v-170.658821c0-23.562649-19.101033-42.664705-42.664705-42.664705h-53.330626v-127.994116h319.984778c17.672498 0 31.998785-14.326287 31.998785-31.998785v-159.991878h53.330626c23.562649 0 42.664705-19.101033 42.664705-42.664705V10.683573c0-23.562649-19.101033-42.664705-42.664705-42.664706H778.653129c-23.562649 0-42.664705 19.102057-42.664705 42.664706V181.343417c0 23.562649 19.101033 42.664705 42.664705 42.664705h53.330626V352.001215H192.015222v-127.994116h53.330626c23.562649 0 42.664705-19.101033 42.664705-42.664705V10.683573c0-23.562649-19.102057-42.664705-42.664705-42.664706H74.687026c-23.562649 0-42.664705 19.102057-42.664705 42.664706V181.343417c0 23.562649 19.102057 42.664705 42.664705 42.664705h53.330626V384c0 17.672498 14.326287 31.998785 31.998785 31.998785h319.984778z"  horiz-adv-x="1024" />

    
    <glyph glyph-name="icon_task" unicode="&#60374;" d="M256.011768 463.995939c0-8.836249 7.163143-15.999392 15.999392-15.999393H710.260459c8.836249 0 15.999392 7.163143 15.999393 15.999393 0 3.284813-1.011027 6.489808-2.895957 9.18008l-99.065249 141.398404a16.000416 16.000416 0 0 0-0.008187 18.349926l99.234095 141.886521c5.064342 7.240915 3.300162 17.216103-3.941775 22.280446a16.001439 16.001439 0 0 1-9.169847 2.888793H272.01116c-8.836249 0-15.999392-7.163143-15.999392-15.999392v-319.984778z m0-79.995939v-447.978894c0-17.672498-14.326287-31.998785-31.998785-31.998785s-31.998785 14.326287-31.998785 31.998785V831.978894c0 17.672498 14.326287 31.998785 31.998785 31.998785h578.541509c17.672498 0 31.998785-14.326287 31.998785-31.998785a32.004925 32.004925 0 0 0-5.776564-18.339693l-126.368082-180.682106a15.998369 15.998369 0 0 1 0.008186-18.349927l126.283148-180.2472c10.139941-14.473643 6.627954-34.42709-7.845688-44.567032a31.996738 31.996738 0 0 0-18.361183-5.791913H256.011768z"  horiz-adv-x="1024" />

    
    <glyph glyph-name="icon_study" unicode="&#60375;" d="M88.019683 735.983563c0 53.016471 42.97886 95.995331 95.995331 95.995331h639.969556c53.016471 0 95.995331-42.97886 95.995332-95.995331v-543.974225c0-53.016471-42.97886-95.995331-95.995332-95.995331H200.014406c-26.508747 0-47.998177-21.48943-47.998177-47.998178s21.48943-47.998177 47.998177-47.998177h703.966103c17.672498 0 31.998785-14.326287 31.998785-31.998785s-14.326287-31.998785-31.998785-31.998785H200.014406c-56.421011 0-111.994724 39.997969-111.994723 95.995332V735.983563z m543.974225 31.997762H184.016037c-17.672498 0-31.998785-14.326287-31.998785-31.998785v-586.749448c14.547321 6.910387 30.820959 10.777461 47.998178 10.777461h623.970164c17.672498 0 31.998785 14.326287 31.998785 31.998785V735.983563c0 17.672498-14.326287 31.998785-31.998785 31.998785H695.991478v-447.978894c0-17.672498-14.326287-31.998785-31.998785-31.998785s-31.998785 14.326287-31.998785 31.998785V767.981325z"  horiz-adv-x="1024" />

    
    <glyph glyph-name="icon_work" unicode="&#60376;" d="M176.015829 767.981325c-26.508747 0-47.998177-21.48943-47.998177-47.998178v-191.990662c0-26.508747 21.48943-47.998177 47.998177-47.998177h191.990663c26.508747 0 47.998177 21.48943 47.998177 47.998177V719.984171c0 26.508747-21.48943 47.998177-47.998177 47.998177H176.015829z m-15.999392 63.997569h223.989447c53.016471 0 95.995331-42.97886 95.995331-95.995331v-223.989447c0-53.016471-42.97886-95.995331-95.995331-95.995331H160.016437c-53.016471 0-95.995331 42.97886-95.995331 95.995331V735.983563c0 53.016471 42.97886 95.995331 95.995331 95.995331z m0-543.974225c-17.672498 0-31.998785-14.326287-31.998785-31.998785v-223.989447c0-17.672498 14.326287-31.998785 31.998785-31.998785h223.989447c17.672498 0 31.998785 14.326287 31.998785 31.998785V256.005884c0 17.672498-14.326287 31.998785-31.998785 31.998785H160.016437z m0 63.996546h223.989447c53.016471 0 95.995331-42.97886 95.995331-95.995331v-223.989447c0-53.016471-42.97886-95.995331-95.995331-95.995331H160.016437c-53.016471 0-95.995331 42.97886-95.995331 95.995331V256.005884c0 53.017494 42.97886 95.995331 95.995331 95.995331zM639.994116 767.981325c-17.672498 0-31.998785-14.326287-31.998785-31.998785v-223.989447c0-17.672498 14.326287-31.998785 31.998785-31.998785h223.989447c17.672498 0 31.998785 14.326287 31.998785 31.998785V735.983563c0 17.672498-14.326287 31.998785-31.998785 31.998785H639.994116z m0 63.997569h223.989447c53.016471 0 95.995331-42.97886 95.995331-95.995331v-223.989447c0-53.016471-42.97886-95.995331-95.995331-95.995331H639.994116c-53.016471 0-95.995331 42.97886-95.995331 95.995331V735.983563c0 53.016471 42.977837 95.995331 95.995331 95.995331z m0-543.974225c-17.672498 0-31.998785-14.326287-31.998785-31.998785v-223.989447c0-17.672498 14.326287-31.998785 31.998785-31.998785h223.989447c17.672498 0 31.998785 14.326287 31.998785 31.998785V256.005884c0 17.672498-14.326287 31.998785-31.998785 31.998785H639.994116z m0 63.996546h223.989447c53.016471 0 95.995331-42.97886 95.995331-95.995331v-223.989447c0-53.016471-42.97886-95.995331-95.995331-95.995331H639.994116c-53.016471 0-95.995331 42.97886-95.995331 95.995331V256.005884c0 53.017494 42.977837 95.995331 95.995331 95.995331z"  horiz-adv-x="1024" />

    
    <glyph glyph-name="icon_safety" unicode="&#60377;" d="M512 863.976656c-89.698928 0-319.984778-159.991878-415.980109-159.991878v-415.980109c0-127.994116 319.984778-383.981325 415.980109-383.981325s415.980109 255.987209 415.980109 383.981325V703.984778c-95.995331 0-328.582597 159.991878-415.980109 159.991878z m351.98254-575.971987c0-80.423681-275.849582-315.741128-351.693968-319.990918-76.422554 4.249791-352.272135 239.566214-352.272135 319.990918V650.760576c53.071729 15.610536 114.724905 46.143946 178.862667 77.904301C399.653259 758.761336 482.887962 799.980109 512 799.980109c27.740808 0 113.795742-42.470277 170.741709-70.574358 65.062831-32.109302 127.611399-62.97938 181.240831-78.682014v-362.719068zM439.249069 355.476363l-97.241718 72.216765a21.327748 21.327748 0 0 1-21.307282 2.400676l-11.409864-5.021363a17.70729 17.70729 0 0 1-4.886287-3.196809c-7.214309-6.650467-7.67582-17.891486-1.027399-25.107841l138.891303-150.7197c0.562818-0.610914 1.163499-1.187035 1.792833-1.728364 8.940626-7.67582 22.409382-6.650467 30.080086 2.289136L753.003959 571.393971a14.005992 14.005992 0 0 1 2.273787 3.667529c3.035126 7.14984-0.300852 15.405875-7.452739 18.441001l-5.007038 2.125407a21.325701 21.325701 0 0 1-22.822798-3.982707l-253.534343-234.695277c-7.53665-6.975878-18.97005-7.594979-27.211759-1.473561z"  horiz-adv-x="1024" />

    
    <glyph glyph-name="icon_voipphone" unicode="&#60378;" d="M575.996546 384c-35.344996 0-63.996546 28.652574-63.996546 63.996546s28.652574 63.996546 63.996546 63.996547c35.344996 0 63.996546-28.652574 63.996547-63.996547s-28.65155-63.996546-63.996547-63.996546z m-20.175505-268.895193C407.166373 156.322557 289.712311 274.186965 246.930949 425.741683c-7.549953 31.902594 0.641613 55.479569 19.97903 73.405847 2.205225 2.044566 8.238638 7.150864 7.343245 6.371104 5.210675 4.538363 10.078543 8.491395 18.423605 15.077394 2.600221 2.050706 2.600221 2.050706 5.134951 4.053316 19.160385 15.159258 27.41642 23.335475 31.112601 31.02255 4.465708 9.287527-8.137331 45.497217-37.347606 82.96762-34.562167 44.335764-64.004733 65.345264-89.534176 65.345264-23.75196 0-36.957727-13.716396-61.117986-72.953545-12.670577-31.066553-15.045671-107.311051-8.587586-150.127206 5.485945-36.374442 25.293059-107.856473 42.929742-149.760862 72.115458-171.346483 228.678236-294.294676 414.019455-323.590909 90.163509-14.07967 181.086311-7.721869 206.209502 13.641695 25.185612 21.416775 37.484729 38.672788 37.484729 45.60671 0 21.046339-26.907836 63.288418-64.754816 93.459579-36.870746 29.393447-72.370261 42.030255-81.143065 37.717019-6.478552-3.185552-13.401218-9.604752-23.189142-21.688974-2.769067-3.418866-19.668968-25.429159-25.726941-32.834826-24.171516-30.673603-42.252313-37.231973-82.34545-28.348652z m32.237216 68.156286l0.445138 0.553609c4.986571 6.065136 22.099321 28.355815 25.660426 32.752961 15.123442 18.671245 28.059056 30.665417 44.680618 38.838564 37.784558 18.580171 94.888114-1.746784 149.275815-45.104268 51.608402-41.142026 88.85777-99.619882 88.857771-143.501298 0-31.374568-21.608134-61.694107-60.024072-94.360088-44.155662-37.547151-149.83761-44.937468-257.598916-28.109198C372.054691-22.901337 196.977233 114.587014 116.282377 306.31878 96.553033 353.193367 75.323523 429.809325 69.056795 471.358627c-8.022721 53.18941-5.323239 139.869584 12.610203 183.840028 32.905434 80.679507 63.813375 112.782669 120.375601 112.78267 50.197262 0 94.485955-31.603789 140.006708-89.996711 42.73122-54.815443 62.723553-112.252597 44.550658-150.046364-9.370415-19.487843-22.293749-32.284287-49.081858-53.477982-2.62171-2.071172-2.62171-2.071172-5.193279-4.099365-7.579629-5.983271-11.824303-9.429767-16.043395-13.104459-0.081864-0.071631-4.912893-4.15974-5.865591-5.042853-3.076058-2.850931-3.216251-3.255137-1.554402-10.403954 36.385698-128.806621 137.045259-229.818199 262.395152-264.621866 14.366196-3.165086 7.592932-5.64865 16.801665 6.073322z m147.93119 232.737692c0 106.033965-85.956697 191.990662-191.990662 191.990662-17.672498 0-31.998785 14.326287-31.998785 31.998785s14.326287 31.998785 31.998785 31.998785c141.377938 0 255.987209-114.609271 255.987208-255.987209 0-17.672498-14.326287-31.998785-31.998784-31.998785-17.671475-0.001023-31.997762 14.325263-31.997762 31.997762z m159.991878 0c0 194.394409-157.588131 351.983563-351.98254 351.983563-17.672498 0-31.998785 14.326287-31.998785 31.998785s14.326287 31.998785 31.998785 31.998785c229.739405 0 415.980109-186.240705 415.980109-415.98011 0-17.672498-14.326287-31.998785-31.998785-31.998785s-31.998785 14.325263-31.998784 31.997762z"  horiz-adv-x="1024" />

    
    <glyph glyph-name="icon_shakehands" unicode="&#60379;" d="M669.444868 519.75794v0.002047M986.211349 519.75794L759.949138 746.02322c-37.490869 37.488823-98.269118 37.488823-135.758963 0l-67.879993-67.879993L443.175495 791.274844c-37.482683 37.488823-98.260931 37.488823-135.7518 0L35.905768 519.75794c-37.490869-37.488823-37.490869-98.269118 0-135.756917l407.269727-407.275867c37.490869-37.488823 98.276281-37.488823 135.758963 0l339.397921 339.395874 67.879993 67.879993c37.489846 37.488823 37.489846 98.269118-0.001023 135.756917zM805.204855 293.49573l-22.63144-22.627347-45.255716 45.25367c-12.491499 12.495592-32.748868 12.495592-45.247531 0-12.499685-12.495592-12.499685-32.756031 0-45.25367l45.247531-45.251623-45.247531-45.251624-90.503246 90.503247c-12.499685 12.497639-32.756031 12.497639-45.255717 0-12.499685-12.495592-12.499685-32.756031 0-45.251623l90.503247-90.505294-45.24753-45.251623-135.759987 135.755894c-12.499685 12.495592-32.756031 12.495592-45.255717 0-12.499685-12.495592-12.499685-32.756031 0-45.251624l135.758964-135.758963-22.624277-22.626324c-12.499685-12.495592-32.756031-12.495592-45.255717 0L81.161485 429.252647c-12.499685 12.497639-12.499685 32.756031 0 45.25367l271.510763 271.51588c12.499685 12.495592 32.756031 12.495592 45.255717 0L511.063675 632.888534l-45.255717-45.251624c-37.490869-37.488823-37.490869-98.271164 0-135.758963l45.255717-45.251624c37.482683-37.488823 98.260931-37.488823 135.750777 0l45.255716 45.251624 113.134687-113.131617c12.491499-12.494569 12.491499-32.755008 0-45.2506z m135.750777 135.756917l-67.879993-67.879994-67.871807 67.879994-90.511433 90.505293c-12.491499 12.495592-32.748868 12.497639-45.247531 0.002047l-22.63144-22.627347-45.24753-45.25367c-12.499685-12.495592-32.756031-12.495592-45.255716 0l-45.24753 45.25367c-12.499685 12.495592-12.499685 32.756031 0 45.251623l45.24753 45.25367 113.134686 113.131617c12.491499 12.495592 32.756031 12.495592 45.247531 0l45.255716-45.251623L940.954609 474.50734c12.500709-12.498662 12.500709-32.757055 0.001023-45.254693z"  horiz-adv-x="1024" />

    
    <glyph glyph-name="icon_task_done" unicode="&#60380;" d="M450.54637 303.78712l294.450218 294.938336c12.579503 12.353352 32.975019 12.353352 45.554522 0a31.230282 31.230282 0 0 0 0-44.73383L456.553177 169.275567c-12.579503-12.353352-32.975019-12.353352-45.554522 0L233.447866 375.053234a31.230282 31.230282 0 0 0 0 44.73383c12.579503 12.353352 32.975019 12.353352 45.554522 0l136.758734-117.342521c10.161431-8.718569 25.325805-8.133238 34.785248 1.342577zM160.016437 767.981325c-17.672498 0-31.998785-14.326287-31.998785-31.998785v-703.966103c0-17.672498 14.326287-31.998785 31.998785-31.998785h703.966103c17.672498 0 31.998785 14.326287 31.998785 31.998785V735.983563c0 17.672498-14.326287 31.998785-31.998785 31.998785H160.016437z m0 63.997569h703.966103c53.016471 0 95.995331-42.97886 95.995331-95.995331v-703.966103c0-53.016471-42.97886-95.995331-95.995331-95.995331H160.016437c-53.016471 0-95.995331 42.97886-95.995331 95.995331V735.983563c0 53.016471 42.97886 95.995331 95.995331 95.995331z"  horiz-adv-x="1024" />

    
    <glyph glyph-name="icon_workfile_line" unicode="&#60381;" d="M912.945695 575.416588h-41.439808l-13.731746 54.583152c-10.717086 42.60433-48.882314 72.356958-92.810802 72.356958H486.407112c-6.807033 0-13.568017 2.227738-19.020192 6.277984l-95.614662 71.01745c-16.403598 12.166087-36.669154 18.86465-57.060577 18.86465H112.313995c-52.777017 0-95.707782-42.931788-95.707782-95.707783v-624.571868c-0.615007-4.393054-1.25969-8.782014-1.25969-13.264095 0-52.772924 42.933835-95.707782 95.707782-95.707782h663.645792a95.591125 95.591125 0 0 1 90.796936 65.437362l138.244574 414.738839a95.55224 95.55224 0 0 1 4.912893 30.26735c-0.001023 52.771901-42.935881 95.707782-95.708805 95.707783zM112.313995 734.711594H314.711681c6.791683 0 13.552667-2.243087 19.020193-6.293334l95.614661-71.01745c16.387225-12.150738 36.653805-18.848277 57.060577-18.848277h278.556227c14.642488 0 27.353998-9.923 30.936593-24.12956l9.813506-39.006385H276.948613c-39.368636 0-74.250074-23.61893-88.865957-60.171428L80.411401 246.069581V702.808999c0 17.58654 14.31503 31.902594 31.902594 31.902595z m830.897004-265.093611L804.966425 54.883237a31.906687 31.906687 0 0 0-30.267351-21.812795h-663.644769c-16.490579 0-29.589922 12.672624-31.259958 28.721135 0.105401 1.055029 0.617054 1.974981 0.617054 3.056616v6.66684c0.3776 1.768273 0.346901 3.617387 1.022283 5.303796l165.894308 414.734746a31.897478 31.897478 0 0 0 29.620621 20.055778h635.997082c17.618263 0 31.902594-14.284331 31.902594-31.902594 0-3.426029-0.552585-6.833639-1.63729-10.088776z"  horiz-adv-x="1024" />

    
    <glyph glyph-name="icon_add" unicode="&#60303;" d="M542.308283 415.999808H926.290631c17.672498 0 31.998785-14.326287 31.998785-31.998785s-14.326287-31.998785-31.998785-31.998785H542.308283v-383.981324c0-17.672498-14.326287-31.998785-31.998785-31.998785s-31.998785 14.326287-31.998785 31.998785V352.003262H94.330412c-17.672498 0-31.998785 14.326287-31.998785 31.998785s14.326287 31.998785 31.998785 31.998784h383.981325V799.981133c0 17.672498 14.326287 31.998785 31.998784 31.998785s31.998785-14.326287 31.998785-31.998785v-383.981325z"  horiz-adv-x="1024" />

    
    <glyph glyph-name="icon_addmessage" unicode="&#60304;" d="M735.989447 214.937536V374.930437c0 17.672498 14.326287 31.998785 31.998785 31.998785s31.998785-14.326287 31.998785-31.998785v-159.991877H959.977871c17.672498 0 31.998785-14.326287 31.998785-31.998785s-14.326287-31.998785-31.998785-31.998785H799.985993v-159.991877c0-17.672498-14.326287-31.998785-31.998784-31.998785s-31.998785 14.326287-31.998785 31.998785V150.94099H575.996546c-17.672498 0-31.998785 14.326287-31.998784 31.998785s14.326287 31.998785 31.998784 31.998785h159.992901zM991.976656 502.924553c0-17.672498-14.326287-31.998785-31.998785-31.998785s-31.998785 14.326287-31.998785 31.998785V726.912977c0 17.672498-14.326287 31.998785-31.998785 31.998785H128.018675c-17.672498 0-31.998785-14.326287-31.998784-31.998785v-511.975441c0-17.672498 14.326287-31.998785 31.998784-31.998784h127.994116c35.344996 0 63.996546-28.652574 63.996547-63.996547v-93.13826l95.995331 74.66349c8.642844 6.722098 21.099551 5.16565 27.821649-3.478218a19.826558 19.826558 0 0 0 4.176112-12.172227v-24.88783c0-9.874905-4.558829-19.196201-12.353352-25.258267l-102.172007-79.466889c-20.924565-16.274662-51.080376-12.504802-67.355038 8.419763a47.994084 47.994084 0 0 0-10.110265 29.468149V118.942205H128.018675c-53.016471 0-95.995331 42.97886-95.995331 95.995331V726.912977c0 53.016471 42.97886 95.995331 95.995331 95.995331h767.96265c53.016471 0 95.995331-42.97886 95.995331-95.995331V502.924553z"  horiz-adv-x="1024" />

    
    <glyph glyph-name="icon_addresslist" unicode="&#60305;" d="M751.986793 671.985993v-575.971986c0-17.672498-14.326287-31.998785-31.998785-31.998785s-31.998785 14.326287-31.998785 31.998785V671.985993c0 17.672498 14.326287 31.998785 31.998785 31.998785s31.998785-14.326287 31.998785-31.998785zM208.013591 192.009338v-159.991878c0-17.672498 14.326287-31.998785 31.998785-31.998785h607.970771c17.672498 0 31.998785 14.326287 31.998785 31.998785V735.983563c0 17.672498-14.326287 31.998785-31.998785 31.998785H240.011352c-17.672498 0-31.998785-14.326287-31.998785-31.998785v-159.991877h63.996547c17.672498 0 31.998785-14.326287 31.998785-31.998785s-14.326287-31.998785-31.998785-31.998785h-63.996547v-255.988232h63.996547c17.672498 0 31.998785-14.326287 31.998785-31.998785s-14.326287-31.998785-31.998785-31.998785h-63.995523z m-63.99757 63.996546V511.994116h-31.998785c-17.672498 0-31.998785 14.326287-31.998785 31.998785s14.326287 31.998785 31.998785 31.998785h31.998785V735.983563c0 53.016471 42.97886 95.995331 95.995331 95.995331h607.970772c53.016471 0 95.995331-42.97886 95.995331-95.995331v-703.966103c0-53.016471-42.97886-95.995331-95.995331-95.995331H240.011352c-53.016471 0-95.995331 42.97886-95.995331 95.995331V192.009338h-31.998785c-17.672498 0-31.998785 14.326287-31.998785 31.998784s14.326287 31.998785 31.998785 31.998785h31.998785z"  horiz-adv-x="1024" />

    
    </font>
</defs>
</svg>
