<?xml version="1.0" standalone="no"?>
<!DOCTYPE svg PUBLIC "-//W3C//DTD SVG 1.1//EN" "http://www.w3.org/Graphics/SVG/1.1/DTD/svg11.dtd" >
<!--
2013-9-30: Created.
-->
<svg>
<metadata>
Created by iconfont
</metadata>
<defs>

<font id="iconfont" horiz-adv-x="1024" >
  <font-face
    font-family="iconfont"
    font-weight="500"
    font-stretch="normal"
    units-per-em="1024"
    ascent="896"
    descent="-128"
  />
    <missing-glyph />
    
    <glyph glyph-name="92" unicode="&#58998;" d="M532.252444 725.333333l-17.521778 0c-9.363911 0-16.952889 7.588978-16.952889 16.952889l0 0.568889c0 21.742933-17.624178 39.367111-39.367111 39.367111l-0.910222 0c-21.742933 0-39.367111-17.624178-39.367111-39.367111l0-0.568889c0-9.363911-7.588978-16.952889-16.952889-16.952889l-17.521778 0c-18.659556 0-33.792-15.132444-33.792-33.792l0-0.682667c0-18.659556 15.132444-33.792 33.792-33.792l148.593778 0c18.659556 0 33.792 15.132444 33.792 33.792l0 0.682667C566.044444 710.200889 550.912 725.333333 532.252444 725.333333zM457.955556 725.333333c-9.4208 0-17.066667 7.645867-17.066667 17.066667s7.645867 17.066667 17.066667 17.066667 17.066667-7.645867 17.066667-17.066667S467.376356 725.333333 457.955556 725.333333zM533.936356 65.422222 247.466667 65.422222c-25.133511 0-45.511111 20.3776-45.511111 45.511111L201.955556 657.066667c0 25.133511 20.3776 45.511111 34.133333 45.511111l92.205511 0c-0.773689-3.777422-1.183289-7.691378-1.183289-11.719111 0-31.175111 25.361067-56.547556 56.547556-56.547556l148.593778 0c31.186489 0 56.547556 25.361067 56.547556 57.230222 0 3.777422-0.4096 7.463822-1.115022 11.036444l69.381689 0c36.511289 0 56.888889-20.3776 56.888889-45.511111l0-341.9136C710.178133 315.392 706.423467 315.733333 702.577778 315.733333c-15.735467 0-30.936178-2.218667-45.511111-5.996089L657.066667 577.422222l-398.222222 0 0-455.111111 262.269156 0C522.353778 102.308978 526.722844 83.171556 533.936356 65.422222zM702.577778 281.6c-81.692444 0-147.911111-66.218667-147.911111-147.911111s66.218667-147.911111 147.911111-147.911111 147.911111 66.218667 147.911111 147.911111S784.270222 281.6 702.577778 281.6zM799.232 164.078933l-91.022222-102.4C703.726933 56.638578 697.480533 54.044444 691.188622 54.044444c-4.994844 0-10.012444 1.6384-14.210844 4.983467l-56.888889 45.511111c-9.807644 7.839289-11.400533 22.163911-3.549867 31.982933 7.839289 9.819022 22.175289 11.411911 31.982933 3.549867l40.015644-32.005689 76.674844 86.254933c8.339911 9.386667 22.7328 10.24 32.119467 1.888711S807.583289 173.476978 799.232 164.078933z"  horiz-adv-x="1024" />

    
    <glyph glyph-name="jihua" unicode="&#58937;" d="M674.508 297.662h-387.428c-14.137 0-25.639-11.5-25.639-25.637 0-14.138 11.502-25.641 25.639-25.641h387.428c14.138 0 25.641 11.502 25.641 25.641 0 14.137-11.502 25.637-25.641 25.637zM794.746 511.417c-14.138 0-25.641-11.502-25.641-25.64v-494.3c0-0.131 0-0.28-0.001-0.434-0.899-0.279-2.666-0.645-5.764-0.645l-563.292 0c-4.312 0-7.564 2.972-7.564 6.913l-0 706.836c0 4.493 0.974 8.289 1.811 9.822h373.338c14.137 0 25.64 11.502 25.64 25.64 0 14.137-11.502 25.639-25.64 25.639h-374.070c-30.337 0-52.357-25.696-52.357-61.1v-706.836c0-32.087 26.396-58.191 58.841-58.191h563.293c34.119 0 57.042 21.041 57.042 52.356l0 494.298c0.001 14.138-11.499 25.641-25.636 25.641zM674.508 150.705h-387.428c-14.137 0-25.639-11.5-25.639-25.637 0-14.138 11.502-25.641 25.639-25.641h387.428c14.138 0 25.641 11.502 25.641 25.641 0 14.137-11.502 25.637-25.641 25.637zM879.596 738.893c-3.773 14.409-12.871 28.25-24.965 37.976l-43.827 35.241c-12.88 10.353-29.277 16.29-44.987 16.29-16.876 0-31.595-6.748-41.44-18.996l-19.625-24.381c-6.38-7.968-7.988-17.577-5.223-26.916l-116.729-145.154-22.813-85.304c-9.749-30.86 4.449-48.076 13.806-55.609 6.783-5.45 14.469-8.729 22.851-9.754 0.984-0.247 2.125-0.488 3.44-0.632 1.004-0.111 2.054-0.168 3.118-0.168h0.014c4.589 0 10.048 0.997 17.18 3.135l2.878 1.065 83.403 41.897 119.874 149.079c0.44-0.017 0.88-0.033 1.32-0.033 9.219 0 17.412 3.863 23.078 10.892l19.563 24.342c10.411 12.938 13.637 29.64 9.082 47.028zM674.47 547.435l-56.738-28.538c-2.958-0.579-5.735-1.684-8.278-3.296-0.313-0.199-0.615-0.386-0.906-0.563 0.124 0.318 0.254 0.64 0.393 0.971 1 2.438 1.588 5.022 1.754 7.702l17.733 66.079 105.732 131.489 48.648-39.114-108.338-134.731zM831.386 723.081l-7.68-9.551-68.14 54.78 7.687 9.564c0.292 0.132 1.144 0.384 2.604 0.384 4.284 0 9.736-2.071 13.57-5.156l43.832-35.246c3.494-2.806 6.421-7.019 7.642-10.993 0.596-1.943 0.59-3.308 0.484-3.781zM487.475 604.933h-200.394c-14.137 0-25.639-11.502-25.639-25.64 0-14.137 11.502-25.638 25.639-25.638h200.394c14.138 0 25.64 11.501 25.64 25.638 0 14.138-11.503 25.64-25.64 25.64zM674.508 457.977h-387.428c-14.137 0-25.639-11.501-25.639-25.639s11.502-25.639 25.639-25.639h387.428c14.138 0 25.641 11.502 25.641 25.639s-11.502 25.639-25.641 25.639z"  horiz-adv-x="1024" />

    
    <glyph glyph-name="shouye" unicode="&#58900;" d="M387.018497 685.373908c17.179264 0 31.099299 13.925151 31.099299 31.099299l0 10.366092 186.597839 0 0-10.366092c0-17.175171 13.920034-31.099299 31.099299-31.099299s31.099299 13.925151 31.099299 31.099299L666.914232 799.406035c0 17.175171-13.920034 31.099299-31.099299 31.099299s-31.099299-13.925151-31.099299-31.099299l0-10.366092L418.117796 789.039943l0 10.366092c0 17.175171-13.920034 31.099299-31.099299 31.099299s-31.099299-13.925151-31.099299-31.099299l0-82.932828C355.919199 699.299059 369.83821 685.373908 387.018497 685.373908zM400.416646 581.055005c-17.179264 0-31.099299-13.925151-31.099299-31.099299l0-30.340005c0-17.175171 13.920034-31.099299 31.099299-31.099299s31.099299 13.925151 31.099299 31.099299L431.515944 549.955706C431.516967 567.130877 417.596933 581.055005 400.416646 581.055005zM622.416785 581.055005c-17.179264 0-31.099299-13.925151-31.099299-31.099299l0-30.340005c0-17.175171 13.920034-31.099299 31.099299-31.099299s31.099299 13.925151 31.099299 31.099299L653.516084 549.955706C653.517107 567.130877 639.597073 581.055005 622.416785 581.055005zM511.103584 349.619982c43.773969 0 74.783217 30.18344 86.212524 48.016597 9.182127 14.33038 5.021364 33.210379-9.202593 42.569538-14.213723 9.379625-33.428344 5.385661-42.974767-8.706289-0.132006-0.197498-13.555737-19.680225-34.035164-19.680225-19.903306 0-32.29452 18.039865-33.124422 19.290345-9.151427 14.349823-28.173666 18.72855-42.650379 9.718339-14.588253-9.06547-19.072381-28.245298-10.001795-42.832528C436.493306 380.031619 467.116767 349.619982 511.103584 349.619982zM463.633433-2.665457 266.173199-2.665457c-41.648562 0-75.532277 34.713616-75.532277 77.374228l0 574.913888c0 42.665729 33.883715 77.374228 75.532277 77.374228 17.179264 0 31.099299 13.925151 31.099299 31.099299s-13.920034 31.099299-31.099299 31.099299c-75.946716 0-137.730874-62.61406-137.730874-139.573849l0-574.913888c0-76.959789 61.784158-139.573849 137.730874-139.573849L463.633433-64.866101c17.179264 0 31.099299 13.920034 31.099299 31.099299S480.81372-2.665457 463.633433-2.665457zM756.661256 789.196509c-17.179264 0-31.099299-13.925151-31.099299-31.099299s13.920034-31.099299 31.099299-31.099299c41.648562 0 75.532277-34.7085 75.532277-77.374228L832.193533 344.598618c0-17.175171 13.920034-31.099299 31.099299-31.099299s31.099299 13.925151 31.099299 31.099299L894.39213 649.62266C894.39213 726.582449 832.607972 789.196509 756.661256 789.196509zM840.980663 245.23047 613.392248 10.874931l-110.711498 114.006544c-11.975752 12.325723-31.655977 12.614296-43.976584 0.647753-12.320607-11.966543-12.614296-31.655977-0.647753-43.976584l133.023666-136.981814c0.10847-0.110517 0.23843-0.183172 0.347924-0.291642 0.11154-0.11154 0.186242-0.245593 0.299829-0.356111 0.771573-0.74906 1.644453-1.311879 2.470261-1.963725 0.704035-0.556679 1.363044-1.183965 2.101871-1.671059 1.031493-0.680499 2.131547-1.187035 3.219321-1.731434 0.730641-0.366344 1.426489-0.816598 2.178619-1.121544 1.25048-0.50756 2.548032-0.823761 3.841491-1.162476 0.642636-0.167822 1.26276-0.429789 1.912559-0.555655 1.961678-0.38067 3.949962-0.581238 5.939269-0.581238s3.977591 0.200568 5.939269 0.581238c0.650823 0.12689 1.269923 0.387833 1.912559 0.555655 1.293459 0.338714 2.591011 0.654916 3.841491 1.162476 0.75213 0.304945 1.447978 0.7552 2.178619 1.121544 1.087774 0.544399 2.187829 1.050935 3.219321 1.731434 0.738827 0.487094 1.397836 1.11438 2.101871 1.671059 0.825808 0.651846 1.698688 1.215688 2.470261 1.963725 0.113587 0.110517 0.188288 0.24457 0.299829 0.356111 0.109494 0.10847 0.239454 0.181125 0.347924 0.291642l249.900583 257.331833c11.966543 12.320607 11.672854 32.011064-0.647753 43.976584C872.637664 257.839649 852.956416 257.561309 840.980663 245.23047z"  horiz-adv-x="1024" />

    
    <glyph glyph-name="dongjie2" unicode="&#58966;" d="M364.851804 103.978415c-116.75667 16.679524-212.024383 57.201559-261.142001 109.798341L103.709803 150.026182l0-36.224243c0-77.155591 156.153093-163.111422 380.149895-163.111422 1.534926 0 2.967523 0 4.502448 0C432.2862-13.187569 388.489657 40.534826 364.851804 103.978415zM655.873688 473.383831C511.693015 473.383831 394.322374 356.115519 394.322374 211.934846S511.693015-49.616468 655.873688-49.616468s261.551314 117.268312 261.551314 261.448986C917.322674 356.115519 800.054362 473.48616 655.873688 473.383831zM494.706505 211.934846c0 88.821025 72.243829 161.064855 161.064855 161.064855 25.684421 0 49.526931-6.549016 71.015889-17.293495L512.102328 140.816628C501.35785 162.305586 494.706505 186.250425 494.706505 211.934846zM655.77136 50.767663c-26.503048 0-51.164185 7.060658-73.267113 18.521435l215.912861 215.912861c11.460777-22.102928 18.521435-46.764065 18.521435-73.267113C816.938543 123.011492 744.694714 50.869991 655.77136 50.767663zM345.511742 211.934846c0 25.786749 3.172179 50.8572 9.107225 74.802039C242.569401 304.235035 151.394824 343.938443 103.709803 394.897971l0-39.191766 0-60.783052c0-60.987709 97.825922-127.603478 249.578895-152.673928C348.172279 164.659139 345.511742 187.990007 345.511742 211.934846zM857.255921 447.801739c4.502448 9.516538 6.753672 19.033077 6.753672 28.344959l0 99.974818c-25.275107-27.117018-62.829619-50.959528-109.286699-70.094934C792.789048 493.337863 827.478365 473.383831 857.255921 447.801739zM467.384831 458.239233c-162.292795 3.069851-300.74308 50.652543-363.572699 117.882282l0-99.974818c0-62.624963 103.044669-131.082642 261.755971-154.618167C386.238433 376.069551 421.848706 423.345258 467.384831 458.239233zM530.112122 495.589088c38.475467 17.088838 81.044069 26.707705 125.761567 26.707705 10.335165 0 20.568002-0.511642 30.698511-1.534926 110.002998 31.41481 177.539722 85.955831 177.539722 136.710703 0 77.155591-156.153093 163.111422-380.149895 163.111422s-380.149895-85.955831-380.149895-163.111422c0-77.155591 156.153093-163.111422 380.149895-163.111422C499.618267 494.361147 515.069851 494.770461 530.112122 495.589088z"  horiz-adv-x="1024" />

    
    <glyph glyph-name="zhihangzhong" unicode="&#59457;" d="M511.071861 833.151603c-246.007927 0-447.287139-201.279213-447.287139-447.287139s201.279213-447.287139 447.287139-447.287139 447.287139 201.279213 447.28714 447.287139-201.279213 447.287139-447.28714 447.287139z m0-805.116851c-196.806341 0-357.829711 161.02337-357.829711 357.829712s161.02337 357.829711 357.829711 357.829711 357.829711-161.02337 357.829712-357.829711-161.02337-357.829711-357.829712-357.829712zM332.157006 439.180763c31.989575 0 53.3163-21.326724 53.316299-53.316299 0-31.989575-21.326724-53.3163-53.316299-53.3163s-53.3163 21.326724-53.3163 53.3163c0 31.989575 21.326724 53.3163 53.3163 53.316299zM508.814448 439.180763c31.989575 0 53.3163-21.326724 53.316299-53.316299 0-31.989575-21.326724-53.3163-53.316299-53.3163s-53.3163 21.326724-53.3163 53.3163c0 31.989575 21.326724 53.3163 53.3163 53.316299zM683.022095 439.180763c31.989575 0 53.3163-21.326724 53.3163-53.316299 0-31.989575-21.326724-53.3163-53.3163-53.3163s-53.3163 21.326724-53.3163 53.3163c0 31.989575 21.326724 53.3163 53.3163 53.316299z"  horiz-adv-x="1024" />

    
    <glyph glyph-name="fq_jiagong" unicode="&#58923;" d="M914.773333 122.88l-221.866666 221.866667 221.866666 221.866666L723.626667 757.76l-221.866667-221.866667-221.866667 221.866667-158.72-158.72 221.866667-221.866667-158.72-158.72-32.426667-221.866666 221.866667 32.426666 158.72 158.72 221.866667-221.866666 160.426666 157.013333zM723.626667 694.613333l126.293333-126.293333-63.146667-63.146667-126.293333 126.293334 63.146667 63.146666z m-413.013334-221.866666l63.146667 63.146666-32.426667 32.426667-63.146666-63.146667-32.426667 32.426667 63.146667 63.146667-32.426667 32.426666-63.146667-63.146666-32.426666 32.426666 95.573333 95.573334 191.146667-191.146667-95.573334-95.573333-61.44 61.44z m-126.293333-443.733334l23.893333 167.253334 8.533334-8.533334 126.293333-126.293333 8.533333-8.533333-167.253333-23.893334z m189.44 63.146667l-126.293333 126.293333 126.293333 126.293334 158.72 158.72 95.573333 95.573333 126.293334-126.293333-95.573334-95.573334-158.72-158.72-126.293333-126.293333z m382.293333-63.146667L723.626667 59.733333l63.146666 63.146667-32.426666 32.426667-63.146667-63.146667-32.426667 32.426667 63.146667 63.146666-32.426667 32.426667-63.146666-63.146667-63.146667 63.146667 95.573333 95.573333 191.146667-191.146666-93.866667-95.573334z"  horiz-adv-x="1024" />

    
    <glyph glyph-name="manage-process" unicode="&#59206;" d="M796.6 260.5v153.3h-262.2v93.7h200v320h-450v-320h200v-93.7h-257v-153.3h-155v-320h360v320h-155v103.3h469.1v-103.3h-155v-320h360v320h-154.9zM334.4 777.5h350v-220h-350v220zM382.4-9.5h-260v220h260v-220zM901.6-9.5h-260v220h260v-220z"  horiz-adv-x="1024" />

    
    <glyph glyph-name="web-icon-" unicode="&#59148;" d="M742.592 400.32c-48.32-48.32-123.2-57.28-180.512-26.56l-253.792-251.2c-17.6-17.6-45.44-17.6-61.76 0-17.6 17.6-17.6 45.44 0 61.76l252.512 252.832c-30.72 58.88-23.36 132.16 26.56 180.832 29.44 29.44 67.52 44.16 105.6 44.16-40.96-42.56-39.68-110.08 1.6-152.64a108.672 108.672 0 0 1 152.64-1.6c-0.288-40.032-13.408-78.112-42.848-107.584z m70.4 191.072c-10.24-11.84-29.44-27.84-54.4-51.52-27.84-27.84-65.92-27.84-92.48 0-27.84 27.84-27.84 66.24 0 92.48 23.36 24.96 51.2 55.68 49.92 55.68a194.944 194.944 0 0 1-221.472-39.36c-54.4-54.4-70.4-133.76-47.04-202.912l-231.712-230.4a88.288 88.288 0 0 1 0-123.52c33.6-33.92 89.6-33.92 124.8 0l231.712 232.032c68.8-23.36 148.16-7.36 202.592 47.04 58.56 58.88 70.4 147.2 38.08 220.48zM759.328 77.632h-5.472c-0.672 36.16-19.2 58.784-40.448 77.504-6.176 5.824-4.128 12.928 0 16.16 21.248 19.36 39.776 41.344 40.448 78.144h5.472c4.8 0 8.928 3.872 8.928 8.384 0 4.512-4.128 8.384-8.928 8.384h-134.4c-5.472 0.64-9.6-3.232-9.6-7.744s4.128-8.384 8.928-8.384h5.472c0.672-36.8 18.528-58.784 40.448-78.144a10.88 10.88 0 0 0 0-16.16c-21.248-18.72-39.776-41.344-40.448-77.504h-4.8c-4.8 0-8.928-3.872-8.928-8.384 0-4.512 4.128-8.384 8.928-8.384h135.072c4.8 0 8.928 3.872 8.928 8.384 0 3.84-4.096 7.744-9.6 7.744z m-14.368 171.776c0-11.616-2.752-21.952-6.176-31.008-15.776-4.512-78.176-4.512-93.952 0a73.888 73.888 0 0 0-6.176 31.008h106.304z m-53.504-158.24c-8.928 0-29.472-13.568-43.872-13.568h-8.928c0.672 30.368 15.072 49.728 33.6 66.528 4.8 4.512 12.352 14.208 19.872 14.208 7.552 0 15.072-10.336 19.872-14.848 18.528-16.8 32.928-36.16 33.6-66.528h-10.24c-14.432 0.672-34.304 14.208-43.904 14.208z m0 0"  horiz-adv-x="1024" />

    
    <glyph glyph-name="jiankong" unicode="&#59038;" d="M64 832V256H896V832H64zM0 896h960v-704H0V896zM192 0H768v-64H192zM448 256H512v-256h-64zM479.232 334.395733l309.9904 348.330667-47.803733 42.5472-259.566934-291.669333L303.957333 655.991467 163.208533 457.3952l52.224-37.009067 91.6224 129.28z"  horiz-adv-x="1024" />

    
    <glyph glyph-name="web-icon-1" unicode="&#59162;" d="M684.768 0.928a168.032 168.032 0 1 0 0 336.128 168.032 168.032 0 1 0 0-336.128z m-126.048 168.064c0-27.136 8.736-52.064 23.328-72.64l175.36 175.36a125.248 125.248 0 0 1-72.64 23.328 126.016 126.016 0 0 1-126.048-126.048z m228.768 72.64l-175.36-175.36a125.248 125.248 0 0 1 72.64-23.328 126.08 126.08 0 0 1 126.048 126.048 125.024 125.024 0 0 1-23.328 72.64z m0 0M494.912 472.704h213.088v-71.872a21.792 21.792 0 1 1 43.488 0v95.264a21.728 21.728 0 0 1-6.624 15.712L497.28 760.352a21.536 21.536 0 0 1-16.032 7.104H213.984A43.52 43.52 0 0 1 170.528 723.84v-620.608a43.52 43.52 0 0 1 43.456-43.648h225.024v0.288a21.76 21.76 0 0 1 0 43.072v0.288H227.008a13.12 13.12 0 0 0-13.056 13.152V710.752c0 7.232 5.856 13.088 13.024 13.088h245.152v-229.408a21.76 21.76 0 0 1 22.784-21.76z m20.672 207.488l163.264-163.872h-163.264V680.256v-0.064z m0 0"  horiz-adv-x="1024" />

    
    <glyph glyph-name="renwuguanli" unicode="&#59033;" d="M768 736H640a128 128 0 0 1-247.93 0H256a64 64 0 0 1-64-64v-672a64 64 0 0 1 64-64h512a64 64 0 0 1 64 64V672a64 64 0 0 1-64 64zM516 800a32 32 0 1 0-32-32 32 32 0 0 0 32 32z m252-800H256V672h512zM477.73 224l45.25 45.25L704 450.27l-45.25 45.26-181.02-181.02-90.51 90.51-45.26-45.26 90.51-90.51L477.73 224z"  horiz-adv-x="1025" />

    
    <glyph glyph-name="quanxian" unicode="&#58946;" d="M645.1 364.1C753.7 437.7 782 585.4 708.4 694S487.2 830.8 378.6 757.2 241.7 536 315.3 427.4c16.9-24.9 38.4-46.4 63.3-63.3C214.8 316.4 96.7 183.5 96.7 27v-59.2H334V27H156c0 160.9 153.9 292 345.7 296.4h20C577 322.2 631.5 310 682 287.3l-177.3-177-83.6 83.8-41.8-42 125.9-125.9 23.1 23.1L736 256.9c79.7-49.8 129.1-136.3 131.6-230.2H689.8v-58.9h237.5V27c0 156.5-118.1 289.4-282.2 337.1z m-133.1 19c-98.2 0-177.8 79.6-177.8 177.8 0 98.2 79.6 177.8 177.8 177.8 98.2 0 177.8-79.6 177.8-177.8S610.2 383.1 512 383.1z"  horiz-adv-x="1024" />

    
    <glyph glyph-name="xiaoxizhongxin" unicode="&#59000;" d="M512 383.8l0.1 0.4-0.1-0.4zM512-41.4c-34.3 0-67.1 10.6-94.8 30.7-25.9 18.8-45.5 44.4-57 74.2H190.4c-21.9 0-41.1 11.5-51.4 30.8-10.3 19.3-9.3 41.7 2.9 59.9l49.6 74.3v208c0 68.9 21.6 134.5 62.3 189.8 19.6 26.6 43.1 49.9 69.9 69.4 26.3 19.1 55.2 34.1 85.9 44.4 8 19.8 21.4 36.7 38.8 49.1 18.7 13.3 40.7 20.3 63.6 20.3s44.9-7 63.6-20.3c17.4-12.4 30.8-29.3 38.8-49.1 30.7-10.4 59.6-25.3 85.9-44.4 26.7-19.4 50.3-42.8 69.9-69.4 40.8-55.3 62.3-121 62.3-189.9v-208l49.6-74.3c12.1-18.2 13.2-40.6 2.9-59.9-10.3-19.3-29.5-30.8-51.4-30.8H663.8c-11.4-29.8-31.1-55.4-57-74.2-27.7-20-60.5-30.6-94.8-30.6z m-106.6 169l13.8-38.8c6.8-19.2 19.1-35.7 35.6-47.6 16.7-12.1 36.4-18.5 57.2-18.5 20.7 0 40.5 6.4 57.2 18.6 16.5 11.9 28.8 28.4 35.6 47.6l13.7 38.7h204.1l-44.5 66.6-9.8 14.7V436.4c0 55.1-17.2 107.6-49.8 151.7-15.6 21.2-34.4 39.9-56 55.6-21.4 15.8-45.3 28-70.7 36.3l-26.7 8.7-9.7 26.3c-3.3 8.8-9.2 16.4-16.9 21.9-7.8 5.5-17 8.4-26.5 8.4s-18.7-2.9-26.5-8.4c-7.7-5.4-13.5-13-16.9-21.9l-9.8-26.2-26.6-8.8C406.9 671.7 383 659.5 361.4 643.7c-21.3-15.5-40.2-34.2-55.9-55.6-32.6-44.1-49.8-96.6-49.8-151.7V209l-9.8-14.7-44.5-66.7h204z"  horiz-adv-x="1024" />

    
    <glyph glyph-name="wenjianguanli" unicode="&#58924;" d="M98 545c-17.7 0-32 14.3-32 32V703.2c0 52.9 43.1 96 96 96h221c52.9 0 96-43.1 96-96V641c0-17.7-14.3-32-32-32s-32 14.3-32 32v62.2c0 17.6-14.4 32-32 32H162c-17.6 0-32-14.4-32-32V577c0-17.6-14.3-32-32-32zM864-30.6H383c-17.7 0-32 14.3-32 32s14.3 32 32 32h481c17.6 0 32 14.4 32 32V577c0 17.6-14.4 32-32 32H447c-17.7 0-32 14.3-32 32s14.3 32 32 32h417c52.9 0 96-43.1 96-96v-511.7c0-52.9-43.1-95.9-96-95.9zM383-30.6H162c-52.9 0-96 43.1-96 96V577c0 17.7 14.3 32 32 32s32-14.3 32-32v-511.7c0-17.6 14.4-32 32-32h221c17.7 0 32-14.3 32-32 0-17.6-14.3-31.9-32-31.9zM768.1 384.8H256c-17.7 0-32 14.3-32 32s14.3 32 32 32h512.1c17.7 0 32-14.3 32-32s-14.3-32-32-32zM768.1 193H256c-17.7 0-32 14.3-32 32s14.3 32 32 32h512.1c17.7 0 32-14.3 32-32s-14.3-32-32-32z"  horiz-adv-x="1024" />

    
    <glyph glyph-name="wj-jh" unicode="&#59150;" d="M324.1 608v-128.3h-27.5v98.8c-3.4-2.8-8-5.3-13.9-7.6-5.9-2.2-11.2-3.6-16.1-4.2v22.4c15.4 4.3 28.8 10.6 40.1 18.8h17.4zM283.8 310.5H337v-21.7h-83.4V298c0 6.5 1.2 12.5 3.6 17.9 2.4 5.4 5.7 10.4 9.9 15.1 4.2 4.7 10.7 10.1 19.6 16.4 8.1 6 13.8 11.4 17 16 3.2 4.7 4.9 9.6 4.9 14.8 0 11.3-6.2 16.9-18.5 16.9-10.8 0-21.1-4.3-30.9-12.9v23.3c11 7.1 23.3 10.6 36.9 10.6 12.5 0 22.4-3.2 29.7-9.6s10.9-15.2 10.9-26.4c0-6.2-1.1-11.9-3.2-16.9-2.1-5-5.2-9.8-9.1-14.2-4-4.4-10.4-9.7-19.2-15.9-8.5-6-14.2-10.7-17.1-14-2.8-3.3-4.3-6.2-4.3-8.6zM256.8 125.89999999999998c8.2-6.1 17.7-9.2 28.6-9.2 6.9 0 12.4 1.5 16.4 4.6 4.1 3.1 6.1 7.4 6.1 13 0 5.8-2.4 10.2-7.2 13.3-4.8 3.1-11.6 4.6-20.2 4.6h-10.9v19.6h10c16.4 0 24.6 5.5 24.6 16.6 0 10.4-6.3 15.6-18.9 15.6-8.2 0-16.2-2.7-23.9-8v21c8.4 4.4 18.3 6.5 29.7 6.5 11.6 0 21-2.7 28.2-8 7.2-5.3 10.8-12.7 10.8-22.2 0-16-8.1-26-24.3-30.1v-0.4c8.5-0.9 15.3-4.1 20.4-9.4 5.1-5.3 7.7-11.7 7.7-19.3 0-11.6-4.2-20.7-12.7-27.2s-19.8-9.8-34-9.8c-12.6 0-22.7 2.1-30.4 6.2v22.6zM736.3 193h-288c-17.7 0-32-14.3-32-32s14.3-32 32-32h288c17.7 0 32 14.3 32 32s-14.3 32-32 32zM448.3 385c-17.7 0-32-14.3-32-32s14.3-32 32-32h288c17.7 0 32 14.3 32 32s-14.3 32-32 32h-288zM448.3 577c-17.7 0-32-14.3-32-32s14.3-32 32-32h288c17.7 0 32 14.3 32 32s-14.3 32-32 32h-288zM352 832h64v-160h-64zM800-64H224c-53 0-96 43-96 96V672c0 53 43 96 96 96h96v-64h-96c-17.7 0-32-14.3-32-32v-640c0-17.7 14.3-32 32-32h576c17.7 0 32 14.3 32 32V672c0 17.7-14.3 32-32 32h-96v64h96c53 0 96-43 96-96v-640c0-53-43-96-96-96zM448 768h128v-64H448zM608 832h64v-160h-64z"  horiz-adv-x="1024" />

    
    <glyph glyph-name="eduguanli" unicode="&#58889;" d="M482.41777778-1.7066666700000042H129.82044445c-56.43377778 0-102.4 45.96622222-102.4 102.4V667.648c0 56.43377778 45.96622222 102.4 102.4 102.4h734.09422222c56.43377778 0 102.4-45.96622222 102.4-102.4v-200.93155555c0-18.88711111-15.24622222-34.13333333-34.13333334-34.13333334s-34.13333333 15.24622222-34.13333333 34.13333334V667.648c0 18.77333333-15.36 34.13333333-34.13333333 34.13333333H129.82044445c-18.77333333 0-34.13333333-15.36-34.13333334-34.13333333V100.69333332999997c0-18.77333333 15.36-34.13333333 34.13333334-34.13333333H482.41777778c18.88711111 0 34.13333333-15.24622222 34.13333333-34.13333333s-15.24622222-34.13333333-34.13333333-34.13333334z m155.30666667 515.98222222H192.512c-18.88711111 0-34.13333333 15.24622222-34.13333333 34.13333334s15.24622222 34.13333333 34.13333333 34.13333333h445.21244445c18.88711111 0 34.13333333-15.24622222 34.13333333-34.13333333s-15.24622222-34.13333333-34.13333333-34.13333334zM474.90844445 361.24444444999995h-285.58222223c-18.88711111 0-34.13333333 15.24622222-34.13333333 34.13333333s15.24622222 34.13333333 34.13333333 34.13333333h285.58222223c18.88711111 0 34.13333333-15.24622222 34.13333333-34.13333333s-15.24622222-34.13333333-34.13333333-34.13333333z m279.552-290.816v39.13955555h-46.6488889c-9.216 0.79644445-14.336 5.46133333-15.13244444 13.88088889 0.79644445 8.41955555 5.91644445 13.08444445 15.13244444 13.88088889h46.6488889V158.72000000000003h-46.6488889c-9.216 0.79644445-14.336 5.46133333-15.13244444 13.88088889 0.79644445 8.41955555 5.91644445 13.08444445 15.13244444 13.88088889h26.51022223l-40.39111111 56.77511111c-3.41333333 4.20977778-5.00622222 8.87466667-5.00622222 13.88088889 1.70666667 14.336 9.67111111 22.30044445 24.0071111 24.00711111 8.41955555-0.79644445 14.67733333-4.20977778 18.88711112-10.12622222l46.64888888-66.90133334 46.6488889 66.90133334c4.20977778 5.91644445 10.46755555 9.216 18.8871111 10.12622222 14.336-1.70666667 22.30044445-9.67111111 24.00711112-24.00711111 0-5.00622222-1.70666667-9.67111111-5.00622222-13.88088889L822.61333333 186.48177778000002h26.51022222c9.216-0.79644445 14.336-5.46133333 15.13244445-13.88088889-0.79644445-8.41955555-5.91644445-13.08444445-15.13244445-13.88088889h-46.64888888v-21.39022222h46.64888888c9.216-0.79644445 14.336-5.46133333 15.13244445-13.88088889-0.79644445-8.41955555-5.91644445-13.08444445-15.13244445-13.88088889h-46.64888888v-39.13955555c-0.79644445-14.336-8.87466667-21.39022222-24.00711112-21.39022223s-23.21066667 7.05422222-24.0071111 21.39022223z m23.89333333-122.53866667c-123.33511111 0-223.80088889 100.352-223.80088889 223.80088889S655.01866667 395.37777778 778.35377778 395.37777778c123.33511111 0 223.80088889-100.352 223.80088889-223.80088889s-100.352-223.68711111-223.80088889-223.68711111z m0 379.22133333c-85.78844445 0-155.53422222-69.74577778-155.53422223-155.53422222s69.74577778-155.53422222 155.53422223-155.53422222c85.78844445 0 155.53422222 69.74577778 155.53422222 155.53422222S864.14222222 327.11111111 778.35377778 327.11111111z"  horiz-adv-x="1024" />

    
    <glyph glyph-name="RectangleCopy" unicode="&#59053;" d="M832 492.501333a21.333333 21.333333 0 0 1 21.333333 21.333334V619.264A106.24 106.24 0 0 1 747.136 725.333333H276.864A106.24 106.24 0 0 1 170.666667 619.264v-342.528A106.24 106.24 0 0 1 276.864 170.666667h470.272A106.24 106.24 0 0 1 853.333333 276.736V384a21.333333 21.333333 0 0 1-42.666666 0v-107.264A63.573333 63.573333 0 0 0 747.136 213.333333H276.864A63.573333 63.573333 0 0 0 213.333333 276.736V619.264A63.573333 63.573333 0 0 0 276.864 682.666667h470.272A63.573333 63.573333 0 0 0 810.666667 619.264v-105.429333a21.333333 21.333333 0 0 1 21.333333-21.333334M792.874667 85.333333H232.874667a21.333333 21.333333 0 0 1 0-42.666666h560a21.333333 21.333333 0 0 1 0 42.666666"  horiz-adv-x="1024" />

    
    <glyph glyph-name="tubiao_shengchangongyi" unicode="&#58938;" d="M54.139985 554.696771c-5.837322 0-11.625473 2.533821-15.592283 7.418829-6.986322 8.604958-5.674756 21.24396 2.929198 28.231285l260.065403 211.178206c8.601947 6.986322 21.24396 5.676763 28.232289-2.928195 6.986322-8.604958 5.674756-21.244963-2.929198-28.232289L66.779991 559.186402a19.9916 19.9916 0 0 0-12.640006-4.489631zM581.019287 554.696771c-5.837322 0-11.625473 2.533821-15.592284 7.418829-6.986322 8.604958-5.674756 21.24396 2.929198 28.231285L828.422608 801.525091c8.604958 6.986322 21.24396 5.676763 28.232289-2.928195 6.987326-8.604958 5.674756-21.244963-2.929198-28.232289L593.659292 559.186402a19.9916 19.9916 0 0 0-12.640005-4.489631zM575.165909 559.391115a19.989593 19.989593 0 0 0-12.562737 4.428417L305.546243 770.4780020000001c-8.638073 6.945179-10.011856 19.57816-3.066677 28.217237 6.944176 8.638073 19.57816 10.012859 28.216233 3.066676L587.753732 595.102442c8.638073-6.945179 10.011856-19.57816 3.066677-28.217237-3.9638-4.931168-9.783059-7.49409-15.6545-7.49409zM876.558189 806.081955c-1.187133 0-2.388315 0.105367-3.596521 0.323125L674.208721 842.362263c-10.906972 1.972868-18.149185 12.415223-16.176317 23.322195 1.973872 10.907976 12.42024 18.148182 23.322195 16.176317l198.752947-35.957183c10.906972-1.972868 18.149185-12.415223 16.176317-23.322195-1.75511-9.698766-10.206533-16.499442-19.725674-16.499442zM885.844519 583.906463c-10.781535 0-19.692559 8.558797-20.047795 19.414591l-6.495614 198.748934c-0.362261 11.078569 8.324983 20.352857 19.403552 20.715118 11.12172 0.360254 20.352857-8.325986 20.715119-19.403552l6.495614-198.748934c0.362261-11.078569-8.324983-20.352857-19.403553-20.715118-0.223779-0.007024-0.446555-0.011038-0.667323-0.011039zM774.358386 378.785345H57.666262c-11.08459 0-20.069872 8.985282-20.069872 20.069873s8.985282 20.069872 20.069872 20.069872h716.692124c11.08459 0 20.069872-8.985282 20.069873-20.069872s-8.985282-20.069872-20.069873-20.069873zM500.097562 90.23978999999997c-26.461123 0-40.918455 6.557831-52.535901 11.827176-10.152345 4.605032-18.170259 8.242696-35.954172 8.242696s-25.801828-3.637664-35.954173-8.242696c-11.616442-5.269345-26.073774-11.827176-52.536904-11.827176-26.460119 0-40.916448 6.557831-52.533894 11.827176-10.150338 4.605032-18.168252 8.242696-35.951162 8.242696-17.780903 0-25.798817-3.637664-35.949155-8.241693-11.616442-5.270348-26.072771-11.828179-52.533894-11.828179s-40.916448 6.557831-52.533894 11.828179c-10.150338 4.604029-18.168252 8.241693-35.950158 8.241693-11.08459 0-20.069872 8.985282-20.069872 20.069872s8.985282 20.069872 20.069872 20.069872c26.460119 0 40.916448-6.557831 52.533894-11.828179 10.150338-4.605032 18.169255-8.241693 35.950158-8.241693 17.781907 0 25.799821 3.637664 35.950159 8.241693 11.616442 5.269345 26.071767 11.828179 52.53289 11.828179s40.917452-6.557831 52.534898-11.828179c10.150338-4.605032 18.168252-8.241693 35.950158-8.241693 17.784917 0 25.802831 3.637664 35.955176 8.242697 11.616442 5.269345 26.073774 11.827176 52.535901 11.827175s40.918455-6.557831 52.535901-11.827175c10.152345-4.605032 18.170259-8.242696 35.954172-8.242697 11.08459 0 20.069872-8.985282 20.069872-20.069872s-8.985282-20.069872-20.069872-20.069872zM862.060717 252.949254l95.196421-164.887045-95.196421-164.885038H671.664864l-95.196421 164.886041 95.196421 164.885039h190.395853m23.173678 40.140747h-236.744212L530.119081 88.06421599999999l118.371102-205.025786h236.744212l118.371103 205.024782-118.371103 205.025786zM766.859279-17.847510000000057c-58.398311 0-105.909719 47.511408-105.909719 105.911726S708.460968 193.97594200000003 766.859279 193.97594200000003c58.400318 0 105.913733-47.511408 105.913733-105.911726S825.2606-17.847510000000057 766.859279-17.847510000000057z m0 171.683707c-36.266259 0-65.769975-29.504719-65.769975-65.771981s29.503716-65.771982 65.769975-65.771982c36.268266 0 65.773989 29.504719 65.773988 65.771982s-29.505723 65.771982-65.773988 65.771981z"  horiz-adv-x="1024" />

    
    <glyph glyph-name="shoudong" unicode="&#59177;" d="M821.574863 498.396888h2.870264C877.53991 498.396888 920.578554 455.296958 920.578554 402.130673v-285.902843c0-134.881995-109.20794-244.232938-243.921397-244.232937H477.679401a243.819252 243.819252 0 0 0-197.144259 100.418394l-194.703002 267.583202a94.917905 94.917905 0 0 0 5.760957 118.835072l9.050015 10.199142c33.845626 38.120379 92.144678 41.552439 130.213985 7.665955 0.919302-0.817157 1.818175-1.649636 2.701726-2.502543l37.134683-35.801696a14.336 14.336 0 0 1 20.291033 0.377935 14.376858 14.376858 0 0 1 4.009177 9.969317V677.982484c0 53.166284 43.043751 96.256 96.133426 96.256h2.870264c53.094783 0 96.133426-43.094823 96.133427-96.256v-87.047661a95.617596 95.617596 0 0 0 44.48399 10.90394h2.865157c44.116269 0 81.29181-29.754733 92.604329-70.316369a95.597167 95.597167 0 0 0 48.00798 12.849796h2.870265c40.576958 0 75.280599-25.168439 89.386773-60.765846a95.59206 95.59206 0 0 0 51.225536 14.790544zM317.210175-0.829925a198.456818 198.456818 0 0 1 160.469226-81.73614h198.977756c109.652269 0 198.543641 89.008838 198.543641 198.80411v285.902843c0 28.064239-22.727182 50.816958-50.755671 50.816957h-2.870264c-28.028489 0-50.750564-22.752718-50.750564-50.816957v-102.006743c0-26.097955-39.106075-26.097955-39.106075 0V448.111082c0 28.069347-22.727182 50.822065-50.75567 50.822065h-2.870265c-28.028489 0-50.750564-22.752718-50.750563-50.816957v-113.503123c0-26.097955-39.106075-26.097955-39.106075 0V505.577656c0 28.069347-22.727182 50.822065-50.755671 50.822065h-2.870264c-28.028489 0-50.750564-22.752718-50.750564-50.816958v-136.490773c0-26.097955-39.106075-26.097955-39.106075 0v308.885387c0 28.069347-22.727182 50.827172-50.755671 50.827172h-2.870264c-28.028489 0-50.750564-22.757825-50.750563-50.822065v-329.237706c0-15.474913-5.985676-30.336958-16.700649-41.480938-22.880399-23.794594-60.699451-24.509606-84.458294-1.598563l-37.134683 35.806803a46.807781 46.807781 0 0 1-67.517606-2.625117l-9.055123-10.194035a49.438005 49.438005 0 0 1-3.003052-61.894544L317.210175-0.829925zM586.054863 699.371571a22.982544 22.982544 0 0 0-45.965087 0c0 83.207022-67.456319 150.663342-150.663342 150.663342S238.763092 782.578594 238.763092 699.371571a22.982544 22.982544 0 1 0-45.965087 0C192.798005 807.966643 280.831362 896 389.426434 896s196.628429-88.033357 196.628429-196.628429z"  horiz-adv-x="1024" />

    
    <glyph glyph-name="zuzhi" unicode="&#58902;" d="M273.6 239.7c20.6 0 41.4 5.2 60.4 16.2 1.1 0.6 2.2 1.3 3.3 2 12.2 7.6 16 23.6 8.5 35.8-7.6 12.2-23.6 16-35.8 8.5-0.6-0.4-1.3-0.8-2-1.2-33.1-19.1-75.5-7.7-94.5 25.3-19.1 33.1-7.7 75.5 25.3 94.5 33.1 19.1 75.5 7.7 94.5-25.3 6.2-10.7 9.4-22.9 9.3-35.1-0.1-14.4 11.4-26.1 25.8-26.3 14.4-0.2 26.1 11.4 26.3 25.8 0.2 21.6-5.4 42.9-16.3 61.6-33.4 58-107.7 77.9-165.6 44.5-57.9-33.4-77.8-107.7-44.4-165.6 22.5-38.9 63.3-60.7 105.2-60.7zM319.5 209.6H217.6c-82 0-148.7-66.7-148.7-148.7v-27.3c0-14.4 11.6-26 26-26s26 11.7 26 26v27.3c0 53.3 43.4 96.7 96.7 96.7h101.8c53.3 0 96.7-43.4 96.7-96.7v-27.3c0-14.4 11.6-26 26-26s26 11.7 26 26v27.3c0.1 82-66.6 148.7-148.6 148.7zM204.7 519.9c18 0 32.5 14.6 32.5 32.5V666.3c0 4.1 2.2 6.3 2.6 6.5h547.4c0.6-0.2 2.9-2.4 2.9-6.5v-113.8c0-18 14.6-32.5 32.5-32.5s32.5 14.6 32.5 32.5V666.3c0 39.5-30.4 71.6-67.7 71.6H239.9c-37.3 0-67.7-32.1-67.7-71.6v-113.8c0-18 14.6-32.6 32.5-32.6zM810.6 206.4H708.8c-82 0-148.7-66.7-148.7-148.7v-27.3c0-14.4 11.7-26 26-26s26 11.7 26 26v27.3c0 53.3 43.4 96.7 96.7 96.7h101.8c53.3 0 96.7-43.4 96.7-96.7v-27.3c0-14.4 11.7-26 26-26s26 11.7 26 26v27.3c0 81.9-66.7 148.7-148.7 148.7zM792.7 478.1c-31.3 8.4-64 4.1-92-12.1-57.9-33.4-77.8-107.7-44.4-165.6 22.4-38.9 63.3-60.6 105.2-60.6 20.6 0 41.4 5.2 60.4 16.2 1.1 0.6 2.2 1.3 3.3 2 12.2 7.6 16 23.6 8.5 35.8-7.6 12.2-23.6 16-35.8 8.5-0.6-0.4-1.3-0.8-2-1.2-33-19.1-75.5-7.7-94.5 25.3-19.1 33.1-7.7 75.5 25.3 94.5 16 9.2 34.7 11.7 52.5 6.9 17.9-4.8 32.8-16.2 42-32.2 6.2-10.7 9.4-22.9 9.3-35.1-0.1-14.4 11.4-26.1 25.8-26.3 14.4-0.2 26.1 11.4 26.3 25.8 0.2 21.6-5.4 42.9-16.3 61.6-16.2 28-42.3 48.1-73.6 56.5z"  horiz-adv-x="1024" />

    
    <glyph glyph-name="jichushuju" unicode="&#59214;" d="M754.456774 635.045161v-508.696774h50.869678v508.696774h-50.869678z m-508.696774-508.696774v508.696774h-50.869677v-508.696774h50.869677zM754.456774 134.936774c1.32129-18.498065-19.819355-45.584516-66.725161-66.725161-46.245161-21.140645-112.970323-35.014194-187.623226-35.014194-73.992258 0-141.378065 13.873548-187.623226 35.014194-47.566452 21.140645-68.046452 48.227097-66.725161 66.725161h-50.869677c8.588387-101.739355 146.663226-149.966452 305.218064-152.609032 158.554839 2.642581 296.629677 50.869677 305.218065 152.609032h-50.869678zM754.456774 304.722581c1.32129-18.498065-19.819355-45.584516-66.725161-66.725162-46.245161-21.140645-112.970323-35.014194-187.623226-35.014193-73.992258 0-141.378065 13.873548-187.623226 35.014193-47.566452 21.140645-68.046452 48.227097-66.725161 66.725162h-50.869677c8.588387-101.739355 146.663226-149.966452 305.218064-152.609033 158.554839 2.642581 296.629677 50.869677 305.218065 152.609033h-50.869678zM754.456774 473.847742c1.32129-18.498065-19.819355-45.584516-66.725161-66.725161-46.245161-21.140645-112.970323-35.014194-187.623226-35.014194-73.992258 0-141.378065 13.873548-187.623226 35.014194-47.566452 21.140645-68.046452 48.227097-66.725161 66.725161h-50.869677C203.47871 372.108387 341.553548 323.88129 500.108387 321.23871c158.554839 2.642581 296.629677 50.869677 305.218065 152.609032h-50.869678zM754.456774 660.810323c1.32129-18.498065-19.819355-45.584516-66.725161-66.725162-46.245161-21.140645-112.970323-35.014194-187.623226-35.014193-73.992258 0-141.378065 13.873548-187.623226 35.014193-47.566452 21.140645-68.046452 48.227097-66.725161 66.725162h-50.869677C203.47871 559.070968 341.553548 510.843871 500.108387 508.20129c158.554839 2.642581 296.629677 50.869677 305.218065 152.609033h-50.869678zM245.76 643.633548c-1.32129 18.498065 19.819355 45.584516 66.725161 66.725162 46.245161 21.140645 112.970323 35.014194 187.623226 35.014193 73.992258 0 141.378065-13.873548 187.623226-35.014193 47.566452-21.140645 68.046452-48.227097 66.725161-66.725162h50.869678c-8.588387 101.739355-146.663226 149.966452-305.218065 152.609033-158.554839-2.642581-296.629677-50.869677-305.218064-152.609033h50.869677z"  horiz-adv-x="1024" />

    
    <glyph glyph-name="ziyuan145" unicode="&#59113;" d="M513.580247-128l-10.53498 4.740741a1072.460905 1072.460905 0 0 0-271.539094 161.185185C122.469136 132.213992 64.790123 228.082305 55.308642 333.958848a717.958848 717.958848 0 0 0 0 81.64609V845.432099l33.711934-9.744856c137.744856-40.032922 309.201646-3.160494 407.440329 52.674897l11.325103 7.63786 26.337449-11.588477c84.279835-35.81893 171.45679-72.691358 297.349794-65.053498a480.921811 480.921811 0 0 1 102.1893 16.592592L966.584362 843.325103l1.316873-32.921811c1.580247-34.502058 1.580247-71.374486 1.580246-102.979424v-378.205761a194.897119 194.897119 0 0 0-1.843621-26.337449c-19.489712-110.353909-96.395062-190.946502-152.493827-242.041152A1281.843621 1281.843621 0 0 0 685.82716-37.399177a1269.465021 1269.465021 0 0 0-161.975308-85.860082zM107.983539 776.954733V414.024691a666.864198 666.864198 0 0 1 0-75.588477c8.427984-92.707819 58.469136-175.407407 158.024691-260.477366a1003.983539 1003.983539 0 0 1 247.835391-148.54321A1246.814815 1246.814815 0 0 1 659.489712 7.111111a1243.390947 1243.390947 0 0 1 121.942387 92.707819c54.781893 49.777778 119.572016 119.045267 136.164609 212.279835a153.8107 153.8107 0 0 1 0 18.17284V708.213992 776.954733a549.662551 549.662551 0 0 0-80.855967-10.53498c-138.534979-8.427984-235.45679 32.921811-321.053498 69.26749l-3.423869 1.316872A647.374486 647.374486 0 0 0 107.983539 776.954733zM756.674897 582.847737v-48.460906h-198.584362c-1.843621-18.962963-4.213992-36.082305-6.584362-52.674897h164.082304v-206.222222h-57.942386v157.234568h-233.08642v-153.020576H369.777778v203.325103h128.263374q2.633745 22.91358 5.26749 52.674897h-171.983539V500.938272c0-96.395062-8.954733-237.037037-66.633745-330.271605a166.716049 166.716049 0 0 1-47.934156 27.654321C272.329218 286.814815 277.596708 412.707819 277.596708 500.938272V666.074074a2610.831276 2610.831276 0 0 1 401.119341 41.349794l43.720165-44.246913c-44.773663-9.481481-97.44856-17.646091-153.547325-24.230453-1.843621-17.646091-3.423868-36.609053-5.26749-56.098765z m-184.36214-222.024692c0-59.786008-22.386831-141.168724-212.016461-195.423868a223.078189 223.078189 0 0 1-37.135802 43.193416c178.304527 43.983539 190.683128 107.983539 190.683127 152.757201v49.514404h57.415638z m-65.580247 222.024692c0 17.646091 2.37037 34.238683 3.423869 50.304526-59.786008-5.26749-121.152263-8.954733-179.094651-11.325103v-38.979423z m79.012346-302.35391a1546.798354 1546.798354 0 0 0 168.823045-76.115226l-38.979424-36.609054a1185.185185 1185.185185 0 0 1-168.296296 80.329218z"  horiz-adv-x="1024" />

    
    <glyph glyph-name="peizhizhongxin" unicode="&#58896;" d="M511.63 571.6c-103.43 0-187.6-84.16-187.6-187.6s84.16-187.6 187.6-187.6 187.6 84.16 187.6 187.6-84.16 187.6-187.6 187.6z m0-283.14c-52.68 0-95.55 42.87-95.55 95.55s42.87 95.55 95.55 95.55 95.55-42.87 95.55-95.55-42.87-95.55-95.55-95.55zM914.05 319.88c-18.03 0-34.37 7.49-46.03 19.54-11.19 11.55-18.1 27.26-18.1 44.58 0 17.32 6.9 33.03 18.1 44.58 11.65 12.05 27.99 19.54 46.03 19.54 25.42 0 46.03 20.61 46.03 46.03 0 0.73-0.02 1.44-0.06 2.15 0 0.42-0.04 0.84-0.06 1.23-0.06 0.88-0.15 1.76-0.27 2.62-0.04 0.44-0.1 0.86-0.19 1.3-0.1 0.67-0.23 1.32-0.36 1.97-0.1 0.54-0.23 1.09-0.38 1.63-0.08 0.34-0.17 0.67-0.25 1-0.13 0.48-0.27 0.96-0.42 1.44-0.15 0.48-0.29 0.96-0.46 1.44-0.25 0.69-0.5 1.38-0.75 2.05-0.25 0.69-0.52 1.36-0.86 2.03-0.42 0.96-0.88 1.9-1.38 2.82-0.23 0.44-0.48 0.88-0.73 1.32l-0.63 1.09-104.71 181.4-0.29 0.48c-0.25 0.46-0.54 0.92-0.84 1.38-0.27 0.46-0.56 0.92-0.88 1.36-0.27 0.4-0.54 0.82-0.84 1.19-0.17 0.23-0.36 0.48-0.52 0.71-0.27 0.4-0.56 0.77-0.88 1.13-0.21 0.27-0.42 0.52-0.63 0.77-0.36 0.42-0.71 0.84-1.07 1.23a44.62 44.62 0 0 1-3.14 3.16c-0.36 0.31-0.69 0.63-1.05 0.92-0.36 0.31-0.69 0.61-1.07 0.9-0.65 0.5-1.3 1-1.97 1.51-0.08 0.06-0.17 0.13-0.27 0.19-0.75 0.54-1.55 1.07-2.34 1.57-0.02 0-0.04 0.02-0.08 0.04-0.23 0.15-0.46 0.27-0.69 0.42-0.19 0.13-0.38 0.25-0.59 0.36-0.04 0.02-0.06 0.04-0.1 0.04-0.46 0.27-0.94 0.54-1.42 0.8l-1.21 0.63c-21.57 10.59-47.95 2.8-60.13-18.31-8.58-14.83-22.41-25.46-38.93-29.87-1.59-0.42-3.16-0.8-4.75-1.09-15.06-2.87-30.5-0.27-43.91 7.49-12.01 6.92-21.26 17.32-26.67 29.79-1.3 2.95-2.36 5.98-3.2 9.14-4.43 16.55-2.15 33.83 6.4 48.64 8.12 14.06 7.97 30.63 1.09 44.06a45.854 45.854 0 0 1-17.93 18.83c-11.11 6.4-23.77 7.66-35.23 4.5-0.73 0.06-1.46 0.08-2.2 0.08l-195.25 1.57h-0.17c-3.45 0.1-6.97-0.17-10.42-0.88-0.73-0.15-1.46-0.31-2.2-0.48-0.73-0.19-1.46-0.38-2.18-0.61-0.84-0.25-1.67-0.54-2.49-0.84-0.82-0.29-1.61-0.61-2.41-0.96-0.02 0-0.06-0.02-0.08-0.04-0.65-0.27-1.3-0.56-1.92-0.88-0.19-0.08-0.36-0.17-0.52-0.27-0.75-0.36-1.51-0.77-2.24-1.19-22.01-12.72-29.56-40.88-16.84-62.89 8.56-14.83 10.84-32.11 6.4-48.64-0.08-0.31-0.17-0.65-0.27-0.96h-0.02c-4.56-16.13-15.04-29.58-29.58-37.97-14.98-8.66-32.05-10.54-47.66-6.63-16.26 4.08-30.9 14.48-39.92 30.1-12.72 22.01-40.86 29.54-62.89 16.84-0.82-0.48-1.63-0.98-2.43-1.51-0.08-0.06-0.17-0.13-0.27-0.17-0.67-0.46-1.34-0.94-1.99-1.44-0.19-0.13-0.36-0.25-0.54-0.4-0.71-0.56-1.42-1.15-2.11-1.74-0.73-0.65-1.44-1.32-2.15-2.03-0.61-0.61-1.19-1.21-1.78-1.86-0.08-0.08-0.17-0.19-0.25-0.27-0.1-0.15-0.21-0.27-0.36-0.42-0.46-0.56-0.94-1.13-1.4-1.72-0.06-0.06-0.11-0.15-0.17-0.21-0.08-0.15-0.19-0.27-0.31-0.42-0.46-0.63-0.92-1.26-1.36-1.9-0.06-0.1-0.13-0.21-0.19-0.29-0.52-0.82-1.05-1.63-1.53-2.47l-0.29-0.48L70.73 518.25l-0.63-1.09c-0.25-0.44-0.5-0.88-0.73-1.32-0.71-1.34-1.36-2.7-1.95-4.1-0.38-0.92-0.73-1.86-1.05-2.8-0.17-0.48-0.31-0.96-0.46-1.44-0.15-0.48-0.29-0.96-0.42-1.44s-0.25-0.96-0.36-1.46c-0.13-0.48-0.23-0.96-0.31-1.46-0.1-0.48-0.19-0.98-0.27-1.46-0.08-0.5-0.17-1-0.23-1.51-0.13-0.86-0.21-1.74-0.25-2.62-0.04-0.4-0.08-0.82-0.08-1.23-0.04-0.71-0.06-1.42-0.06-2.15 0-25.42 20.61-46.03 46.03-46.03 18.03 0 34.37-7.49 46.03-19.54 11.19-11.55 18.1-27.26 18.1-44.58 0-17.32-6.9-33.03-18.1-44.58-11.65-12.05-27.99-19.54-46.03-19.54-25.42 0-46.03-20.61-46.03-46.03 0-0.73 0.02-1.44 0.06-2.15 0-0.42 0.04-0.84 0.08-1.23 0.04-0.88 0.15-1.76 0.25-2.62 0.06-0.5 0.15-1 0.23-1.51 0.08-0.48 0.17-0.98 0.27-1.46 0.08-0.5 0.19-0.98 0.31-1.46 0.1-0.5 0.23-0.98 0.36-1.46 0.13-0.48 0.27-0.96 0.42-1.44 0.15-0.48 0.29-0.96 0.46-1.44 0.31-0.96 0.65-1.88 1.05-2.8 0.59-1.4 1.23-2.76 1.95-4.1 0.23-0.44 0.48-0.88 0.73-1.32l0.63-1.09 104.71-181.4 0.29-0.48c0.48-0.84 1-1.65 1.53-2.47 0.06-0.08 0.13-0.19 0.19-0.29 0.44-0.65 0.9-1.28 1.36-1.9 0.13-0.15 0.23-0.27 0.31-0.42 0.06-0.06 0.1-0.15 0.17-0.21l0.06-0.06c0.44-0.56 0.9-1.11 1.34-1.65 0.15-0.15 0.25-0.27 0.36-0.42 0.08-0.08 0.17-0.19 0.25-0.27 0.29-0.31 0.59-0.65 0.88-0.94 0.29-0.31 0.59-0.63 0.9-0.92 0.71-0.71 1.42-1.38 2.15-2.03 0.69-0.59 1.4-1.17 2.11-1.74 0.19-0.15 0.36-0.27 0.54-0.4 0.65-0.5 1.32-0.98 1.99-1.44 0.1-0.04 0.19-0.1 0.27-0.17 0.79-0.52 1.61-1.03 2.43-1.51 22.03-12.7 50.17-5.17 62.89 16.84 9.02 15.63 23.68 26.03 39.94 30.11 15.59 3.91 32.66 2.03 47.64-6.63 14.54-8.39 25.02-21.84 29.58-37.95 0.1-0.31 0.21-0.65 0.29-0.98 4.44-16.53 2.15-33.81-6.4-48.64-12.7-22.01-5.17-50.17 16.84-62.89 0.52-0.31 1.07-0.61 1.61-0.88 0.33-0.19 0.67-0.36 1-0.5 1.19-0.61 2.41-1.13 3.64-1.61 0.71-0.29 1.42-0.54 2.15-0.8 0.48-0.15 0.94-0.31 1.42-0.46 0.34-0.1 0.69-0.21 1.05-0.29 0.34-0.08 0.69-0.17 1.05-0.27 0.69-0.17 1.4-0.31 2.11-0.46 3.45-0.71 6.97-0.98 10.42-0.88h208.4c3.18-0.1 6.38 0.13 9.54 0.71 1.59 0.27 3.18 0.63 4.75 1.11 0.61 0.17 1.19 0.36 1.78 0.54 0.71 0.25 1.44 0.5 2.15 0.8 0.54 0.21 1.07 0.42 1.59 0.65 0.46 0.19 0.92 0.4 1.36 0.63 0.42 0.19 0.84 0.4 1.25 0.61 0 0.02 0.02 0.02 0.02 0.02 0.67 0.34 1.34 0.71 2.01 1.09 22.01 12.72 29.56 40.88 16.84 62.89-8.56 14.83-10.84 32.11-6.4 48.64 0.08 0.33 0.19 0.67 0.29 0.98 4.56 16.11 15.04 29.56 29.58 37.95 14.54 8.41 31.44 10.75 47.68 6.65 0.34-0.08 0.65-0.17 0.98-0.25 16.53-4.41 30.36-15.04 38.93-29.88 12.7-22.01 40.86-29.54 62.87-16.84 0.82 0.48 1.63 0.98 2.43 1.51 0.08 0.06 0.17 0.13 0.27 0.17 0.67 0.46 1.34 0.94 1.99 1.44 0.19 0.13 0.36 0.25 0.54 0.4 0.71 0.56 1.42 1.15 2.11 1.74 0.73 0.65 1.44 1.32 2.15 2.03 0.29 0.29 0.61 0.61 0.9 0.92 0.29 0.29 0.59 0.63 0.88 0.94 0.08 0.08 0.17 0.19 0.25 0.27 0.1 0.15 0.21 0.27 0.36 0.42 0.44 0.52 0.86 1.05 1.3 1.59 0.19 0.23 0.4 0.5 0.56 0.75 0.02 0 0.02 0.02 0.02 0.02 0.25 0.31 0.48 0.65 0.71 0.98 0.25 0.31 0.46 0.65 0.69 0.98 0.04 0.06 0.08 0.13 0.13 0.17 0.54 0.82 1.05 1.65 1.55 2.51l0.29 0.48 104.71 181.4 0.63 1.09c0.25 0.44 0.5 0.88 0.73 1.32 0.5 0.92 0.96 1.86 1.38 2.82 0.31 0.67 0.59 1.34 0.86 2.03 0.25 0.67 0.5 1.36 0.75 2.05 0.17 0.48 0.31 0.96 0.46 1.44 0.15 0.48 0.29 0.96 0.42 1.44 0.08 0.34 0.17 0.67 0.25 1 0.15 0.54 0.27 1.09 0.38 1.63 0.13 0.65 0.25 1.3 0.36 1.97 0.08 0.44 0.15 0.86 0.19 1.3 0.13 0.86 0.21 1.74 0.27 2.62 0.02 0.4 0.06 0.82 0.06 1.23 0.04 0.71 0.06 1.42 0.06 2.15 0.01 25.38-20.6 45.99-46.01 45.99z m-160.61-133.2c-40.29 10.8-82.37 5.25-118.5-15.61s-61.97-54.54-72.76-94.83c-4.39-16.36-6.07-33.01-5.1-49.46h-90.13c0.19 2.93 0.27 5.86 0.27 8.79 0 13.56-1.78 27.22-5.4 40.67-10.79 40.29-36.63 73.98-72.76 94.83-36.13 20.86-78.2 26.4-118.5 15.61-16.36-4.39-31.65-11.26-45.42-20.29l-45.08 78.1c51.01 25.71 86.07 78.6 86.07 139.52s-35.06 113.81-86.07 139.52l45.08 78.1c13.77-9.04 29.06-15.9 45.42-20.29 40.29-10.8 82.37-5.25 118.5 15.61 36.13 20.86 61.97 54.54 72.76 94.83 3.62 13.45 5.4 27.11 5.4 40.67 0 2.78-0.08 5.54-0.25 8.31l90.04-0.73c-0.82-16.05 0.9-32.28 5.17-48.24 10.8-40.29 36.63-73.98 72.76-94.83s78.2-26.4 118.5-15.61c16.36 4.39 31.65 11.26 45.42 20.29l45.08-78.1c-51-25.71-86.07-78.6-86.07-139.52s35.06-113.81 86.07-139.52l-45.08-78.1c-13.77 9.02-29.06 15.88-45.42 20.28z"  horiz-adv-x="1024" />

    
    <glyph glyph-name="paigongfenpeishebei" unicode="&#58933;" d="M798.5152 2.4576H232.8576c-36.0448 0-65.3312 29.2864-65.3312 65.3312v131.2768c0 36.0448 29.2864 65.3312 65.3312 65.3312h565.6576c36.0448 0 65.3312-29.2864 65.3312-65.3312v-131.2768c0-35.84-29.2864-65.3312-65.3312-65.3312zM232.8576 223.4368c-13.5168 0-24.3712-10.8544-24.3712-24.3712v-131.2768c0-13.5168 10.8544-24.3712 24.3712-24.3712h565.6576c13.5168 0 24.3712 10.8544 24.3712 24.3712v131.2768c0 13.5168-10.8544 24.3712-24.3712 24.3712H232.8576zM779.0592 284.8768H252.3136c-46.6944 0-84.7872 38.0928-84.7872 84.7872V695.9104c0 46.6944 38.0928 84.7872 84.7872 84.7872h526.7456c46.6944 0 84.7872-38.0928 84.7872-84.7872V369.664c0-46.6944-38.0928-84.7872-84.7872-84.7872zM252.3136 739.7376c-24.1664 0-43.8272-19.6608-43.8272-43.8272V369.664c0-24.1664 19.6608-43.8272 43.8272-43.8272h526.7456c24.1664 0 43.8272 19.6608 43.8272 43.8272V695.9104c0 24.1664-19.6608 43.8272-43.8272 43.8272H252.3136zM720.4864 113.0496h-61.44c-11.264 0-20.48 9.216-20.48 20.48s9.216 20.48 20.48 20.48h61.44c11.264 0 20.48-9.216 20.48-20.48s-9.216-20.48-20.48-20.48zM577.1264 113.0496h-266.24c-11.264 0-20.48 9.216-20.48 20.48s9.216 20.48 20.48 20.48h266.24c11.264 0 20.48-9.216 20.48-20.48s-9.216-20.48-20.48-20.48zM466.944 367.8208c-5.3248 0-10.4448 2.048-14.5408 5.9392l-48.3328 48.3328a20.39808 20.39808 0 1 0 28.8768 28.8768l48.3328-48.3328a20.39808 20.39808 0 0 0-14.336-34.816zM287.1296 284.8768c-5.3248 0-10.4448 2.048-14.5408 5.9392a20.39808 20.39808 0 0 0 0 28.8768l131.4816 131.2768a20.39808 20.39808 0 1 0 28.8768-28.8768l-131.4816-131.2768c-3.8912-3.8912-9.216-5.9392-14.336-5.9392zM466.944 367.8208c-5.3248 0-10.4448 2.048-14.5408 5.9392a20.39808 20.39808 0 0 0 0 28.8768l146.432 146.432a20.39808 20.39808 0 1 0 28.8768-28.8768L481.28 373.76c-3.8912-3.8912-9.216-5.9392-14.336-5.9392zM642.6624 510.5664c-13.7216 0-27.4432 5.12-37.888 15.5648a53.6576 53.6576 0 0 0 0 75.776 53.6576 53.6576 0 0 0 75.776 0 53.6576 53.6576 0 0 0 0-75.776c-10.4448-10.4448-24.1664-15.5648-37.888-15.5648z m0 66.1504a12.61568 12.61568 0 1 1 8.8064-3.6864 11.91936 11.91936 0 0 1-8.8064 3.6864z"  horiz-adv-x="1024" />

    


  </font>
</defs>
</svg>
